<?xml version="1.0" standalone="no"?>
<!DOCTYPE svg PUBLIC "-//W3C//DTD SVG 1.1//EN" "http://www.w3.org/Graphics/SVG/1.1/DTD/svg11.dtd" >
<svg xmlns="http://www.w3.org/2000/svg">
<metadata></metadata>
<defs>
<font id="kartikabold" horiz-adv-x="1225" >
<font-face units-per-em="2048" ascent="1638" descent="-410" />
<missing-glyph horiz-adv-x="596" />
<glyph horiz-adv-x="0" />
<glyph unicode="&#xd;" horiz-adv-x="1321" />
<glyph unicode=" "  horiz-adv-x="596" />
<glyph unicode="&#x09;" horiz-adv-x="596" />
<glyph unicode="&#xa0;" horiz-adv-x="596" />
<glyph unicode="!" horiz-adv-x="616" d="M174 0v252h268v-252h-268zM174 1204v314h268v-314l-39 -786h-188z" />
<glyph unicode="&#x22;" horiz-adv-x="838" d="M84 1475v43h264v-43l-51 -523h-160zM489 1475v43h263v-43l-50 -523h-159z" />
<glyph unicode="#" horiz-adv-x="1179" d="M23 382v229h196l53 258h-172v229h218l79 385h237l-78 -385h211l79 385h236l-78 -385h151v-229h-196l-53 -258h171v-229h-218l-78 -382h-239l79 382h-210l-79 -382h-238l78 382h-149zM457 611h209l55 258h-211z" />
<glyph unicode="$" horiz-adv-x="1179" d="M81 483h277q9 -106 45 -170t97 -90v439q-386 92 -386 411q0 89 27.5 162t78 128t121.5 90t159 49v151h194v-150q337 -48 377 -430h-281q-10 151 -96 188v-386q118 -27 191.5 -63t117.5 -85q95 -108 95 -281q0 -85 -27 -163.5t-78.5 -141t-126.5 -104.5t-172 -55v-151 h-194v151q-102 14 -177.5 52t-126.5 100.5t-79.5 149.5t-35.5 199zM391 1087q0 -68 29 -105.5t80 -59.5v341q-109 -44 -109 -176zM694 221q127 44 127 213q0 36 -5 63.5t-19.5 48.5t-39 37t-63.5 30v-392z" />
<glyph unicode="%" horiz-adv-x="1885" d="M153 1093q0 97 27 174t75 130.5t114.5 81.5t145.5 28q78 0 145 -28.5t115.5 -81.5t76 -130t27.5 -174q0 -96 -27 -172.5t-75 -130.5t-115 -82.5t-147 -28.5q-81 0 -147.5 28.5t-114 82t-74 130.5t-26.5 173zM397 1093q0 -209 118 -209q119 0 119 209t-119 209 q-118 0 -118 -209zM414 0l811 1483h242l-810 -1483h-243zM1007 392q0 97 26.5 173.5t74.5 130t114.5 82t146.5 28.5q79 0 146 -29t115 -83t75 -130.5t27 -171.5q0 -96 -27 -173t-75 -131t-115 -83t-146 -29q-81 0 -147.5 28.5t-114 82t-74 130.5t-26.5 175zM1251 392 q0 -211 118 -211q119 0 119 211q0 208 -119 208q-118 0 -118 -208z" />
<glyph unicode="&#x26;" horiz-adv-x="1414" d="M94 428q0 146 90 253q37 45 90.5 88.5t123.5 86.5q-66 91 -97 162.5t-31 132.5q0 76 29.5 141t82 113t124.5 75t156 27q79 0 146.5 -26.5t117 -73t78 -109t28.5 -133.5q0 -56 -15 -104.5t-46.5 -92.5t-79 -85t-111.5 -81q30 -37 52 -64t43 -53t44 -55t55 -69 q9 39 14.5 84.5t7.5 99.5h279q-7 -130 -33.5 -236.5t-71.5 -189.5l150 -188l-209 -176l-120 154q-169 -133 -409 -133q-106 0 -195.5 35.5t-154.5 97t-101.5 144t-36.5 175.5zM372 440q0 -44 16 -84t44 -71t67 -49.5t85 -18.5q151 0 252 88l-290 363q-44 -29 -77 -54 t-54.5 -51.5t-32 -56t-10.5 -66.5zM537 1169q0 -30 20 -70t56 -87l21 -27q68 41 99.5 81.5t31.5 94.5q0 26 -9 47.5t-24.5 37t-36 24t-42.5 8.5q-49 0 -82.5 -29.5t-33.5 -79.5z" />
<glyph unicode="'" horiz-adv-x="444" d="M92 1475v43h262v-43l-51 -523h-160z" />
<glyph unicode="(" horiz-adv-x="706" d="M59 549q0 489 362 958h225q-318 -512 -318 -958q0 -447 318 -958h-225q-362 468 -362 958z" />
<glyph unicode=")" horiz-adv-x="706" d="M59 -409q161 257 239.5 495t78.5 463q0 224 -78.5 462.5t-239.5 495.5h226q362 -470 362 -958t-362 -958h-226z" />
<glyph unicode="*" horiz-adv-x="854" d="M66 1217l55 165l239 -104l-22 264h174l-23 -264l240 104l55 -165l-256 -58l177 -201l-146 -104l-135 231l-133 -231l-146 104l177 201z" />
<glyph unicode="+" horiz-adv-x="1238" d="M111 608v248h382v382h252v-382h382v-248h-382v-382h-252v382h-382z" />
<glyph unicode="," horiz-adv-x="589" d="M150 0v283h288v-239q0 -72 -18.5 -131t-54.5 -100.5t-90 -64.5t-125 -23v179q89 0 95 96h-95z" />
<glyph unicode="-" horiz-adv-x="706" d="M45 418v262h616v-262h-616z" />
<glyph unicode="." horiz-adv-x="589" d="M151 0v283h287v-283h-287z" />
<glyph unicode="/" horiz-adv-x="643" d="M0 0l438 1518h205l-440 -1518h-203z" />
<glyph unicode="0" horiz-adv-x="1179" d="M88 740q0 767 500 767q502 0 502 -767q0 -764 -502 -764q-500 0 -500 764zM366 740q0 -152 14.5 -254.5t43 -164.5t69.5 -89t95 -27q55 0 96.5 27t70 89.5t43 165t14.5 253.5t-14.5 254t-43 166t-70 90.5t-96.5 27.5q-54 0 -95 -27t-69.5 -89.5t-43 -165.5t-14.5 -256z " />
<glyph unicode="1" horiz-adv-x="1179" d="M220 1025v229q336 0 384 253h223v-1507h-272v1069q-121 -44 -335 -44z" />
<glyph unicode="2" horiz-adv-x="1179" d="M81 0q0 183 86 313q40 60 115 133t185 162q98 79 165 139t108 112.5t58.5 103.5t17.5 112q0 96 -54 149.5t-154 53.5q-42 0 -80 -16.5t-67 -49.5t-48.5 -82.5t-23.5 -114.5h-279q9 112 48.5 203t104.5 155t153.5 99t195.5 35q115 0 205 -33.5t151 -92t93 -138t32 -172.5 q0 -85 -23 -157.5t-69 -137.5q-43 -60 -129.5 -143.5t-211.5 -188.5q-74 -63 -127.5 -111.5t-79.5 -78.5h644v-254h-1016z" />
<glyph unicode="3" horiz-adv-x="1179" d="M84 457h281q0 -51 14.5 -97t43 -80.5t69.5 -54.5t95 -20q52 0 94.5 18.5t72.5 51t46 78t16 99.5q0 112 -65 170.5t-192 58.5h-115v228h87q215 0 215 195q0 85 -44.5 129.5t-127.5 44.5q-172 0 -196 -221h-278q12 110 52.5 194t102.5 141t142.5 86t172.5 29 q103 0 186.5 -30t143 -84t91.5 -128.5t32 -163.5q0 -80 -34 -154.5t-104 -128.5q102 -52 155.5 -147.5t53.5 -215.5q0 -106 -39 -194t-107.5 -151.5t-161 -98.5t-199.5 -35q-108 0 -198 34.5t-156 97.5t-104.5 151.5t-44.5 197.5z" />
<glyph unicode="4" horiz-adv-x="1179" d="M61 333v215l655 954h213v-923h188v-246h-188v-333h-272v333h-596zM359 579h298v445z" />
<glyph unicode="5" horiz-adv-x="1179" d="M79 454h278q7 -63 27 -110t49 -78t66 -46t78 -15q55 0 100 23t77 63.5t50 94.5t18 116q0 63 -18 113t-51 85t-78.5 54t-100.5 19q-129 0 -232 -115h-212l66 825h837v-253h-597l-20 -257q86 41 205 41q94 0 181 -35t153 -100t105.5 -156.5t39.5 -204.5q0 -115 -37 -214 t-105.5 -172t-165 -114.5t-215.5 -41.5q-96 0 -181 29.5t-151.5 89t-110 149t-55.5 210.5z" />
<glyph unicode="6" horiz-adv-x="1179" d="M86 697q0 810 539 810q87 0 162.5 -27.5t135 -82t99.5 -136t55 -190.5h-280q-24 207 -181 207q-94 0 -158 -95t-88 -275q118 84 262 84q96 0 180.5 -37t146.5 -103t98 -156.5t36 -197.5t-34.5 -202t-97.5 -166t-152.5 -112.5t-198.5 -41.5q-125 0 -222.5 47.5 t-164.5 139.5t-102 226t-35 308zM358 641q7 -212 72.5 -324t176.5 -112q48 0 86.5 22t65.5 60t41.5 89t14.5 110q0 60 -15 111t-43 88t-68 58t-89 21q-121 0 -242 -123z" />
<glyph unicode="7" horiz-adv-x="1179" d="M91 1230v253h996v-177l-523 -1306h-299l520 1230h-694z" />
<glyph unicode="8" horiz-adv-x="1179" d="M83 415q0 114 60.5 205t185.5 162q-93 69 -142.5 153.5t-49.5 181.5q0 85 33 157t92 123.5t142 80.5t184 29t184.5 -29t143 -81t92 -123.5t32.5 -156.5q0 -197 -192 -335q247 -142 247 -367q0 -98 -37 -179t-103.5 -139t-160 -89.5t-206.5 -31.5q-112 0 -205 31.5 t-159.5 89.5t-103.5 138.5t-37 179.5zM360 415q0 -50 16.5 -89t46.5 -66t72 -41t93 -14t93 14.5t72.5 41.5t47 66t16.5 88q0 38 -14 69.5t-42 59t-71.5 53.5t-101.5 53q-59 -28 -103 -55.5t-73 -55.5q-52 -52 -52 -124zM415 1117q0 -133 173 -217q175 84 175 217 q0 77 -45.5 119t-129.5 42q-81 0 -127 -42t-46 -119z" />
<glyph unicode="9" horiz-adv-x="1179" d="M86 986q0 106 34.5 201t98 166t152.5 112.5t198 41.5q123 0 220.5 -47t165 -138.5t103 -226t35.5 -309.5q0 -810 -540 -810q-87 0 -163 27.5t-134.5 82t-98 136t-54.5 190.5h280q22 -207 181 -207q95 0 156.5 94.5t86.5 276.5q-116 -85 -260 -85q-96 0 -180 37 t-146.5 103t-98.5 156.5t-36 198.5zM364 997q0 -60 15 -111t43 -88t67.5 -57.5t88.5 -20.5q122 0 242 123q-3 105 -21.5 186.5t-51 136.5t-76.5 83.5t-98 28.5q-47 0 -85.5 -21.5t-66 -59t-42.5 -89t-15 -111.5z" />
<glyph unicode=":" horiz-adv-x="589" d="M151 0v283h287v-283h-287zM151 815v283h287v-283h-287z" />
<glyph unicode=";" horiz-adv-x="589" d="M151 0v283h288v-239q0 -72 -18.5 -131t-54.5 -100.5t-90 -64.5t-125 -23v179q89 0 95 96h-95zM152 815v283h287v-283h-287z" />
<glyph unicode="&#x3c;" horiz-adv-x="1238" d="M111 623v218l1016 432v-268l-662 -273l662 -273v-267z" />
<glyph unicode="=" horiz-adv-x="1238" d="M111 396v248h1016v-248h-1016zM111 820v249h1016v-249h-1016z" />
<glyph unicode="&#x3e;" horiz-adv-x="1238" d="M111 192v267l663 273l-663 273v268l1016 -432v-218z" />
<glyph unicode="?" horiz-adv-x="1179" d="M91 1015q10 113 51 204t107 155t153.5 98.5t191.5 34.5q110 0 201 -31.5t156 -88t101 -134.5t36 -170q0 -106 -48 -193q-45 -88 -170 -191q-54 -45 -87 -79.5t-44 -59.5q-23 -49 -23 -217h-259q1 115 11.5 195t33.5 127q45 92 163 190q51 43 80.5 73.5t44.5 54t18.5 44 t3.5 44.5q0 45 -16 82.5t-44.5 65.5t-68 43.5t-87.5 15.5q-189 0 -229 -263h-276zM449 0v283h287v-283h-287z" />
<glyph unicode="@" horiz-adv-x="2152" d="M152 490q0 437 279 728t708 291q390 0 625 -223q236 -224 236 -563q0 -171 -47 -305.5t-130.5 -227.5t-196.5 -142.5t-245 -49.5q-72 0 -124 29.5t-80 79.5q-114 -109 -272 -109q-85 0 -156.5 30.5t-123.5 86.5t-81.5 136.5t-29.5 180.5q0 269 165 476q169 211 374 211 q170 0 273 -76l11 49h265l-159 -693q-11 -48 -17.5 -79t-6.5 -55q0 -39 36 -39q39 0 101 34t108.5 98.5t74 157.5t27.5 210q0 121 -46 224t-129.5 178t-199 117.5t-254.5 42.5q-165 0 -299.5 -57.5t-240.5 -172.5q-214 -234 -214 -568q0 -162 52.5 -288t152.5 -213 t244 -132.5t326 -45.5q222 0 418 89l118 -194q-261 -115 -534 -115q-233 0 -419.5 61.5t-317.5 178t-201 283t-70 376.5zM782 438q0 -212 158 -212q42 0 82.5 20t75.5 56t62 86.5t42 111.5l69 305q-66 86 -204 86q-56 0 -107 -42t-91 -108t-63.5 -146.5t-23.5 -156.5z" />
<glyph unicode="A" horiz-adv-x="1461" d="M-3 0l583 1518h270l618 -1518h-316l-166 434h-531l-158 -434h-300zM540 675h358l-184 481z" />
<glyph unicode="B" horiz-adv-x="1461" d="M179 0v1518h556q122 0 221 -28.5t169.5 -81.5t108.5 -129t38 -171q0 -96 -35.5 -168t-110.5 -126q55 -26 95.5 -64t67.5 -84t40 -98t13 -107q0 -226 -146 -343.5t-434 -117.5h-583zM462 261h299q291 0 291 200q0 52 -15 89.5t-52 62.5t-98 37t-152 12h-273v-401zM462 920 h271q132 0 195 39.5t63 132.5q0 42 -14.5 73t-47 51.5t-85.5 30.5t-129 10h-253v-337z" />
<glyph unicode="C" horiz-adv-x="1577" d="M115 760q0 179 50.5 324t143.5 247.5t224.5 158t293.5 55.5q123 0 232 -39.5t193.5 -111.5t139 -173.5t66.5 -225.5h-290q-5 68 -32.5 122.5t-72.5 93t-105.5 59t-129.5 20.5q-98 0 -176 -34.5t-133.5 -102t-85 -166.5t-29.5 -227t30 -227t84.5 -166.5t132 -103 t173.5 -35.5q73 0 133.5 20.5t105.5 61t72 99t34 135.5h289q-12 -136 -63.5 -241.5t-135 -178t-193.5 -110.5t-239 -38q-164 0 -295.5 55.5t-224 157.5t-142.5 247t-50 324z" />
<glyph unicode="D" horiz-adv-x="1577" d="M181 0v1518h500q775 0 775 -751q0 -767 -775 -767h-500zM464 261h215q142 0 236 34.5t150 99.5t79 159t23 213q0 115 -22.5 206t-78.5 154t-150 96.5t-237 33.5h-215v-996z" />
<glyph unicode="E" horiz-adv-x="1461" d="M179 0v1518h1127v-261h-844v-343h790v-259h-790v-394h877v-261h-1160z" />
<glyph unicode="F" horiz-adv-x="1341" d="M177 0v1518h1059v-261h-776v-350h675v-260h-675v-647h-283z" />
<glyph unicode="G" horiz-adv-x="1696" d="M116 760q0 180 53.5 324.5t150 246t231 156.5t296.5 55q136 0 254 -39t207.5 -110.5t145 -172.5t66.5 -226h-291q-6 70 -34.5 124.5t-77.5 92.5t-116.5 58t-150.5 20q-99 0 -180.5 -35t-140 -102.5t-91 -166t-32.5 -225.5q0 -125 32.5 -223.5t91 -167t140.5 -105 t181 -36.5q142 0 242.5 41.5t169.5 129.5v159h-376v261h656v-819h-218l-36 109q-79 -66 -187.5 -99.5t-248.5 -33.5q-165 0 -301 56.5t-232.5 159t-150 247t-53.5 321.5z" />
<glyph unicode="H" horiz-adv-x="1577" d="M180 0v1518h283v-585h649v585h285v-1518h-285v672h-649v-672h-283z" />
<glyph unicode="I" horiz-adv-x="635" d="M192 0v1518h282v-1518h-282z" />
<glyph unicode="J" horiz-adv-x="1106" d="M68 414v84h282q0 -263 147 -263q39 0 69 10t51 38t32 78.5t11 131.5v1025h284v-1016q0 -143 -28 -243t-84 -163t-139.5 -91.5t-195.5 -28.5q-99 0 -178 31t-135 88t-86 138t-30 181z" />
<glyph unicode="K" horiz-adv-x="1461" d="M181 0v1518h283v-639l631 639h387l-648 -634l653 -884h-363l-491 688l-169 -166v-522h-283z" />
<glyph unicode="L" d="M176 0v1518h283v-1257h696v-261h-979z" />
<glyph unicode="M" horiz-adv-x="1814" d="M183 0v1518h368l351 -1082l353 1082h367v-1518h-275v972l-327 -972h-238l-325 972v-972h-274z" />
<glyph unicode="N" horiz-adv-x="1577" d="M180 0v1518h268l674 -1017v1017h275v-1518h-267l-677 1015v-1015h-273z" />
<glyph unicode="O" horiz-adv-x="1696" d="M117 760q0 177 54.5 321.5t152 247t231.5 158t292 55.5q159 0 293 -56t231 -158.5t151.5 -247t54.5 -320.5q0 -174 -53.5 -318t-150.5 -247.5t-231 -161t-295 -57.5t-295 57t-231 160t-150.5 247.5t-53.5 319.5zM406 760q0 -125 33 -223.5t91.5 -167t139 -105 t176.5 -36.5q97 0 178.5 36.5t140 105t91 167t32.5 223.5q0 126 -33 224.5t-91.5 166t-139 103t-174.5 35.5q-96 0 -177.5 -36t-141 -104t-92.5 -166.5t-33 -222.5z" />
<glyph unicode="P" horiz-adv-x="1461" d="M179 0v1518h582q78 0 152.5 -8.5t141 -29.5t122 -55t95.5 -85.5t62.5 -121.5t22.5 -162q0 -242 -146.5 -363.5t-436.5 -121.5h-312v-571h-283zM462 831h317q78 0 133 14.5t89.5 42.5t50.5 69t16 95q0 65 -24 105t-64.5 62.5t-94 30t-112.5 7.5h-311v-426z" />
<glyph unicode="Q" horiz-adv-x="1696" d="M117 760q0 177 55 321.5t152.5 247t231.5 158t292 55.5q159 0 292.5 -56t231 -158.5t152 -247t54.5 -320.5q0 -157 -42 -286.5t-125 -235.5l210 -167l-172 -204l-245 195q-82 -45 -169 -65.5t-187 -20.5q-161 0 -295.5 57t-231 160t-150.5 247.5t-54 319.5zM407 760 q0 -125 32.5 -223.5t91 -167t139.5 -105t177 -36.5q64 0 123 17l-116 91l171 205l170 -136q47 69 70.5 157t23.5 198q0 126 -33 224.5t-91.5 166t-139 103t-174.5 35.5q-96 0 -177.5 -36t-141 -104t-92.5 -166.5t-33 -222.5z" />
<glyph unicode="R" horiz-adv-x="1577" d="M181 0v1518h680q61 0 116 -2.5t105.5 -13t97 -31t88.5 -56.5q37 -32 65 -71.5t46.5 -83.5t28 -91.5t9.5 -94.5q0 -139 -67 -238.5t-185 -152.5q97 -74 158 -234l163 -449h-305l-145 413q-16 43 -42 79t-60.5 62t-76.5 41t-89 15h-304v-610h-283zM464 871h377 q76 0 130.5 10.5t89 34.5t50.5 63t16 95q0 101 -63 148.5t-194 47.5h-406v-399z" />
<glyph unicode="S" horiz-adv-x="1461" d="M106 550h275q7 -81 39.5 -140.5t82.5 -98.5t114.5 -57.5t137.5 -18.5q69 0 126 14t97.5 39.5t62.5 62.5t22 83q0 47 -21.5 80t-69.5 59t-126 47.5t-192 44.5q-130 29 -224 67.5t-154.5 91t-89.5 121t-29 157.5q0 96 40 176.5t113.5 139t175.5 91.5t227 33 q130 0 237.5 -35.5t185.5 -102t122.5 -163t47.5 -218.5h-272q-30 259 -313 259q-138 0 -211 -46.5t-73 -127.5q0 -33 16 -57.5t51 -45t90 -37.5t133 -33q68 -14 139.5 -31t140 -41t129 -58.5t106.5 -83.5t72.5 -115.5t26.5 -155.5q0 -105 -43 -192t-119.5 -149.5 t-182.5 -97.5t-231 -35q-163 0 -284.5 42.5t-203.5 118.5t-124.5 181.5t-46.5 231.5z" />
<glyph unicode="T" horiz-adv-x="1341" d="M61 1257v261h1226v-261h-472v-1257h-284v1257h-470z" />
<glyph unicode="U" horiz-adv-x="1577" d="M180 648v870h283v-867q0 -129 21.5 -210.5t63 -127t102 -62t138.5 -16.5q79 0 140 17t101.5 62.5t61.5 126.5t21 210v867h285v-870q0 -158 -27.5 -283t-96.5 -211.5t-186.5 -132t-298.5 -45.5q-143 0 -244 28.5t-168.5 77.5t-106.5 115t-59 140.5t-25 154t-5 156.5z" />
<glyph unicode="V" horiz-adv-x="1461" d="M10 1518h304l416 -1133l419 1133h303l-591 -1518h-261z" />
<glyph unicode="W" horiz-adv-x="2048" d="M38 1518h298l251 -1021l282 1021h301l281 -1020l252 1020h298l-422 -1518h-252l-309 1112l-306 -1112h-253z" />
<glyph unicode="X" horiz-adv-x="1461" d="M-16 0l582 798l-526 720h346l344 -491l346 491h346l-527 -720l582 -798h-347l-398 570l-398 -570h-350z" />
<glyph unicode="Y" horiz-adv-x="1461" d="M-12 1518h343l401 -615l399 615h343l-601 -880v-638h-283v638z" />
<glyph unicode="Z" horiz-adv-x="1341" d="M54 0v239l836 1018h-755v261h1116v-240l-836 -1017h862v-261h-1223z" />
<glyph unicode="[" horiz-adv-x="589" d="M101 -388v1871h470v-230h-199v-1410h199v-231h-470z" />
<glyph unicode="\" horiz-adv-x="589" d="M-49 1483h234l429 -1483h-233z" />
<glyph unicode="]" horiz-adv-x="589" d="M25 -157h199v1410h-199v230h470v-1871h-470v231z" />
<glyph unicode="^" horiz-adv-x="995" d="M14 809l366 674h192l367 -674h-283l-180 356l-181 -356h-281z" />
<glyph unicode="_" horiz-adv-x="1170" d="M-10 -121h1189v-185h-1189v185z" />
<glyph unicode="`" horiz-adv-x="777" d="M104 1512h347l170 -357h-237z" />
<glyph unicode="a" d="M97 312q0 398 656 398h43q-1 45 -7 79t-26.5 57.5t-59.5 35.5t-105 12q-195 0 -203 -173h-273q23 403 487 403q106 0 190.5 -19t143.5 -67t91 -131t32 -210v-697h-270v57q-134 -81 -310 -81q-83 0 -154 24t-123 68.5t-82 106.5t-30 137zM372 321q0 -56 45.5 -85.5 t120.5 -29.5q38 0 75 7.5t71 22t62.5 36.5t49.5 51v166h-79q-345 0 -345 -168z" />
<glyph unicode="b" d="M157 0v1484h271v-441q54 40 114.5 60.5t128.5 20.5q111 0 197 -40.5t145 -115t89.5 -179t30.5 -231.5q0 -132 -36 -239.5t-99.5 -183.5t-150 -117.5t-187.5 -41.5q-69 0 -124.5 13t-107.5 44v-33h-271zM428 301q100 -95 221 -95q95 0 150.5 88.5t55.5 263.5 q0 167 -52.5 251.5t-146.5 84.5q-119 0 -228 -144v-449z" />
<glyph unicode="c" horiz-adv-x="1106" d="M89 550q0 135 37 242t105.5 180.5t164.5 112.5t214 39q91 0 169 -27t138.5 -80t100 -130.5t53.5 -179.5h-284q-2 46 -16 81t-37.5 58.5t-55.5 35.5t-68 12q-54 0 -98.5 -21.5t-77 -65t-50 -108t-17.5 -149.5q0 -86 17.5 -150.5t50 -107.5t77 -64.5t98.5 -21.5 q34 0 65 11.5t55.5 34.5t39.5 57.5t17 80.5h284q-14 -103 -54.5 -180.5t-101 -129.5t-138 -78t-167.5 -26q-116 0 -212 38t-164.5 111t-106.5 180t-38 245z" />
<glyph unicode="d" d="M89 542q0 135 36.5 243t100 183.5t150 115.5t186.5 40q131 0 234 -59v419h270v-1484h-270v58q-107 -82 -243 -82q-113 0 -199.5 40.5t-145.5 114.5t-89 178.5t-30 232.5zM367 542q0 -168 52.5 -252t147.5 -84q120 0 229 143v447q-102 98 -222 98q-95 0 -151 -87.5 t-56 -264.5z" />
<glyph unicode="e" d="M91 550q0 133 38 239.5t106.5 180.5t164 114t211.5 40q120 0 216 -39t164 -112.5t104.5 -180.5t36.5 -242v-87h-756q10 -65 33 -113t56 -80t75.5 -48t90.5 -16q36 0 72 12t65 35.5t47.5 57.5t19.5 79h286q-15 -100 -58 -177t-107.5 -129.5t-147.5 -80t-177 -27.5 q-120 0 -219.5 38.5t-171 112t-110.5 180.5t-39 243zM382 692h458q-26 102 -85.5 152t-143.5 50q-81 0 -142 -50t-87 -152z" />
<glyph unicode="f" horiz-adv-x="635" d="M28 870v228h149v47q0 366 328 366q48 0 93 -7t86 -18v-241q-56 10 -91 13.5t-61 3.5q-45 0 -64.5 -26.5t-19.5 -92.5v-45h190v-228h-190v-870h-271v870h-149z" />
<glyph unicode="g" d="M89 542q0 135 36.5 243t100 183.5t150 115.5t186.5 40q131 0 234 -59v33h270v-976q0 -532 -486 -532q-106 0 -190.5 27t-144 78t-91.5 119t-32 144h279q0 -139 174 -139q49 0 87.5 11t66 38t44 73t21.5 115q-109 -80 -241 -80q-113 0 -199.5 40.5t-145.5 114.5t-89 178.5 t-30 232.5zM367 542q0 -168 52.5 -252t147.5 -84q120 0 229 143v447q-102 98 -222 98q-95 0 -151 -87.5t-56 -264.5z" />
<glyph unicode="h" d="M156 0v1484h271v-451q117 91 255 91q389 0 389 -419v-705h-273v697q0 101 -33 145t-109 44q-110 0 -229 -133v-753h-271z" />
<glyph unicode="i" horiz-adv-x="528" d="M142 0v1098h270v-1098h-270zM142 1201v283h270v-283h-270z" />
<glyph unicode="j" horiz-adv-x="528" d="M-64 -139q60 -20 92 -25.5t53 -5.5q17 0 28 7t17.5 26t9 50.5t2.5 81.5v1103h270v-1109q0 -123 -21 -200.5t-60.5 -121t-95.5 -59t-126 -15.5q-43 0 -85 4t-84 9v255zM138 1201v283h270v-283h-270z" />
<glyph unicode="k" horiz-adv-x="1106" d="M157 0v1484h271v-723l326 337h355l-435 -426l449 -672h-324l-312 486l-59 -58v-428h-271z" />
<glyph unicode="l" horiz-adv-x="528" d="M142 0v1484h270v-1484h-270z" />
<glyph unicode="m" horiz-adv-x="1814" d="M168 0v1098h270v-63q57 46 115.5 67.5t124.5 21.5q106 0 179 -36t116 -111q46 48 84.5 77t73.5 44.5t68 20.5t69 5q359 0 359 -419v-705h-274v697q0 103 -25 146t-85 43q-102 0 -213 -132v-754h-269v697q0 103 -25.5 146t-85.5 43q-100 0 -212 -132v-754h-270z" />
<glyph unicode="n" d="M156 0v1098h271v-65q117 91 255 91q389 0 389 -419v-705h-273v697q0 101 -33 145t-109 44q-110 0 -229 -133v-753h-271z" />
<glyph unicode="o" d="M91 550q0 135 37 242t105.5 180.5t164.5 112.5t213 39q120 0 216 -39t164 -112.5t104.5 -180.5t36.5 -242q0 -136 -37.5 -243t-105.5 -180.5t-164 -112t-214 -38.5q-116 0 -212 38t-164.5 111t-106 180t-37.5 245zM369 550q0 -86 17.5 -150.5t49.5 -107.5t76.5 -64.5 t98.5 -21.5t98.5 21.5t76.5 64.5t49.5 107.5t17.5 150.5q0 85 -17.5 149.5t-49.5 108t-76.5 65t-98.5 21.5t-98.5 -21.5t-76.5 -65t-49.5 -108t-17.5 -149.5z" />
<glyph unicode="p" d="M157 -388v1486h271v-55q54 40 114.5 60.5t128.5 20.5q111 0 197 -40.5t145 -115t89.5 -179t30.5 -231.5q0 -132 -36 -239.5t-99.5 -183.5t-150 -117.5t-187.5 -41.5q-69 0 -124.5 13t-107.5 44v-421h-271zM428 301q100 -95 221 -95q95 0 150.5 88.5t55.5 263.5 q0 167 -52.5 251.5t-146.5 84.5q-119 0 -228 -144v-449z" />
<glyph unicode="q" d="M89 542q0 135 36.5 243t100 183.5t150 115.5t186.5 40q131 0 234 -59v33h270v-1486h-270v446q-107 -82 -243 -82q-113 0 -199.5 40.5t-145.5 114.5t-89 178.5t-30 232.5zM367 542q0 -168 52.5 -252t147.5 -84q120 0 229 143v447q-102 98 -222 98q-95 0 -151 -87.5 t-56 -264.5z" />
<glyph unicode="r" horiz-adv-x="751" d="M150 0v1098h270v-63q100 89 219 89q17 0 50 -4.5t77 -11.5v-279q-46 14 -84.5 22t-70.5 8q-54 0 -100 -28t-91 -87v-744h-270z" />
<glyph unicode="s" horiz-adv-x="1106" d="M75 390h277q2 -184 206 -184q89 0 135.5 33t46.5 83q0 23 -10 38t-38 28.5t-78.5 28t-131.5 34.5q-99 24 -170 48.5t-117.5 61t-68.5 90t-22 136.5q0 72 30 133.5t85 106.5t133 71t174 26q443 0 452 -372h-267q-10 142 -172 142q-35 0 -65.5 -6t-52.5 -17.5t-34.5 -28 t-12.5 -38.5q0 -18 6.5 -30t31 -23.5t72.5 -25t131 -33.5q101 -26 175.5 -52t123.5 -64.5t73 -94.5t24 -141q0 -78 -32 -144.5t-90.5 -115t-142 -76.5t-186.5 -28q-457 0 -485 414z" />
<glyph unicode="t" horiz-adv-x="635" d="M44 870v228h124v252h273v-252h164v-228h-164v-538q0 -38 3.5 -61t10 -35.5t16.5 -16.5t22 -4q25 0 59.5 4t76.5 11v-221q-51 -13 -94 -18.5t-81 -5.5q-96 0 -152.5 22.5t-86 67t-38.5 111t-9 154.5v530h-124z" />
<glyph unicode="u" d="M150 394v704h274v-695q0 -102 33.5 -145.5t108.5 -43.5q124 0 231 132v752h270v-1098h-270v67q-118 -91 -258 -91q-389 0 -389 418z" />
<glyph unicode="v" horiz-adv-x="1106" d="M27 1098h293l234 -691l235 691h294l-415 -1098h-226z" />
<glyph unicode="w" horiz-adv-x="1577" d="M22 1098h300l154 -635l186 635h236l188 -635l154 635h293l-328 -1098h-242l-183 625l-183 -625h-244z" />
<glyph unicode="x" horiz-adv-x="1106" d="M-6 0l403 570l-375 528h336l196 -312l196 312h336l-374 -528l405 -570h-337l-226 354l-225 -354h-335z" />
<glyph unicode="y" horiz-adv-x="1106" d="M27 1098h293l234 -691l235 691h294l-404 -1069q-37 -97 -71.5 -177.5t-78 -138.5t-101 -90.5t-141.5 -32.5q-38 0 -78.5 6t-85.5 20v263q54 -21 84.5 -28t48.5 -7q96 0 169 199z" />
<glyph unicode="z" horiz-adv-x="1106" d="M60 0v213l575 646h-538v239h917v-211l-574 -645h606v-242h-986z" />
<glyph unicode="{" horiz-adv-x="728" d="M43 429v240q47 1 80.5 12t55.5 29.5t33.5 42t15.5 50.5q3 20 4.5 54.5t3 76.5t3 87.5t3 88.5t3.5 79.5t6 60.5q6 44 23 84t41.5 72t55.5 54.5t66 30.5q61 16 149 16h99v-236h-76q-69 0 -79 -26q-18 -44 -18 -266q0 -89 -10 -157.5t-30 -120t-50 -89t-69 -63.5 q39 -26 68.5 -62t49.5 -87.5t30.5 -120.5t10.5 -160q0 -224 18 -266q10 -26 79 -26h76v-236h-99q-58 0 -113 10.5t-100.5 38.5t-77.5 78t-44 130q-4 24 -6 60.5t-3 79t-2.5 88t-2.5 87t-3.5 76t-5.5 54.5q-3 28 -15 52t-34.5 42.5t-56 29.5t-79.5 12z" />
<glyph unicode="|" horiz-adv-x="560" d="M160 -409v1892h240v-1892h-240z" />
<glyph unicode="}" horiz-adv-x="728" d="M43 -173h75q65 0 79 26q19 47 19 266q0 91 10 160t30 120t50 87.5t69 62.5q-40 27 -70 63.5t-49.5 88t-29.5 120t-10 158.5q0 221 -19 265q-12 27 -79 27h-75v236h98q45 0 83.5 -3.5t71.5 -14.5t62 -31.5t56 -54.5q50 -66 62 -153q3 -24 5.5 -60.5t4 -79.5t2.5 -88.5 t2.5 -87.5t3 -76.5t4.5 -54.5q3 -27 14.5 -50.5t34 -42t56.5 -29.5t82 -12v-240q-47 -1 -80.5 -12t-56 -29t-35 -42.5t-15.5 -52.5q-2 -20 -4 -54.5t-3 -75.5t-2.5 -86.5t-3 -88.5t-4 -79.5t-5.5 -60.5q-6 -43 -23.5 -82.5t-42 -71.5t-56 -54.5t-65.5 -32.5 q-31 -9 -68 -12.5t-80 -3.5h-98v236z" />
<glyph unicode="~" horiz-adv-x="1237" d="M92 582v215q112 121 285 121q60 0 125 -16.5t143 -53.5q79 -35 136.5 -52.5t101.5 -17.5q66 0 132 34t134 106v-213q-111 -123 -287 -123q-56 0 -123 17t-145 52q-79 35 -135 52.5t-101 17.5q-68 0 -134 -34t-132 -105z" />
<glyph unicode="&#xa1;" horiz-adv-x="616" d="M174 -106l41 786h186l39 -786v-314h-266v314zM174 846v252h266v-252h-266z" />
<glyph unicode="&#xa2;" horiz-adv-x="1179" d="M86 549q0 136 37 242.5t104.5 179.5t163.5 111t213 38h18.5t25.5 -1l63 227l187 -51l-61 -222q197 -96 226 -366h-281q0 79 -16 109l-170 -610h8q36 0 67.5 12t55.5 35t39.5 57.5t18.5 79.5h279q-13 -101 -51.5 -178t-98.5 -129.5t-138.5 -79.5t-171.5 -27q-17 0 -34.5 1 t-35.5 3l-64 -228l-188 51l63 233q-132 71 -195.5 198t-63.5 315zM362 549q0 -163 58 -248l162 591q-49 -4 -89.5 -27t-69.5 -66t-45 -105.5t-16 -144.5z" />
<glyph unicode="&#xa3;" horiz-adv-x="1179" d="M24 -51v269q55 29 93 59.5t62 69t34.5 89t10.5 119.5q0 20 -1 38t-4 37h-195v228h131q-16 63 -24.5 116t-8.5 92q0 104 35.5 186t98.5 138.5t151 86.5t193 30q98 0 181 -30t144.5 -87t99.5 -140.5t46 -191.5h-277q-18 220 -198 220q-44 0 -80.5 -15.5t-62.5 -42.5 t-40.5 -63t-14.5 -76q0 -47 9 -99t32 -124h310v-228h-254q2 -11 2.5 -21t0.5 -20q0 -137 -44 -221q-9 -19 -19 -35t-24 -34q32 0 67 -4.5t75 -11.5t81.5 -15.5t77.5 -15.5t64 -11.5t42 -4.5q95 0 257 84v-285q-130 -59 -248 -59q-81 0 -226 45q-68 20 -116 31t-79 11 q-144 0 -382 -114z" />
<glyph unicode="&#xa4;" horiz-adv-x="1277" d="M40 408l150 150q-61 113 -61 233q0 137 61 233l-150 152l183 181l151 -149q106 64 237 64q132 0 239 -63l149 149l183 -181l-148 -153q61 -109 61 -233q0 -63 -15 -121.5t-47 -112.5l150 -149l-184 -186l-150 150q-113 -62 -238 -62q-66 0 -123 15.5t-112 48.5l-153 -152 zM389 791q0 -46 17.5 -87t48 -71.5t71 -48t85.5 -17.5q46 0 86.5 17.5t71 48t48 71.5t17.5 87t-18 87t-48.5 71.5t-71 48t-85.5 17.5q-44 0 -84.5 -17.5t-71 -48t-48.5 -71.5t-18 -87z" />
<glyph unicode="&#xa5;" horiz-adv-x="1180" d="M-32 1484h309l310 -566l312 566h308l-364 -636h271v-222h-391v-84h391v-220h-391v-322h-266v322h-396v220h396v84h-396v222h273z" />
<glyph unicode="&#xa6;" horiz-adv-x="597" d="M161 435h252v-878h-252v878zM161 721v877h252v-877h-252z" />
<glyph unicode="&#xa7;" horiz-adv-x="1179" d="M60 657q0 87 46.5 157t136.5 124q-47 53 -71.5 109.5t-24.5 115.5q0 65 27.5 127t78.5 110t124.5 77.5t166.5 29.5q98 0 176.5 -28.5t135.5 -82t91.5 -131t45.5 -175.5h-279q-18 188 -161 188q-64 0 -99 -29t-35 -77q0 -27 12.5 -50t46.5 -52t94 -67.5t154 -95.5 q110 -67 181.5 -123t100.5 -101q30 -46 46 -93.5t16 -99.5q0 -87 -44 -157t-136 -127q113 -101 113 -259q0 -77 -31.5 -142t-88 -112.5t-134 -74.5t-169.5 -27q-96 0 -176.5 28t-140.5 82.5t-99 135t-53 185.5h281q19 -199 188 -199q36 0 64.5 10t48 26.5t30 39t10.5 46.5 q0 26 -17 50.5t-56.5 55.5t-104 71.5t-158.5 98.5q-227 140 -281 231q-56 94 -56 205zM323 677q0 -28 11.5 -54t37.5 -53.5t67.5 -58.5t101.5 -68q58 -35 105 -64t78 -49q81 49 81 123q0 26 -10.5 50.5t-36 51.5t-67.5 58t-105 69q-60 36 -106.5 67.5t-81.5 57.5 q-75 -46 -75 -130z" />
<glyph unicode="&#xa8;" horiz-adv-x="767" d="M49 1198v285h271v-285h-271zM450 1198v285h267v-285h-267z" />
<glyph unicode="&#xa9;" horiz-adv-x="1562" d="M15 748q0 104 28 201.5t78.5 182t121 154.5t155.5 120t182 77.5t201 27.5q103 0 199.5 -28t181.5 -78t155 -120.5t120.5 -155t78.5 -181.5t28 -200q0 -104 -27.5 -201.5t-77 -182.5t-119 -155t-154.5 -120.5t-182.5 -78t-202.5 -27.5q-104 0 -201 27t-182.5 77 t-155.5 119.5t-120.5 154.5t-78.5 183t-28 204zM226 748q0 -116 44 -217.5t119.5 -177.5t176.5 -120t215 -44q112 0 212.5 44t176 120t119.5 177.5t44 217.5q0 112 -43.5 212.5t-118.5 176.5t-175.5 120.5t-214.5 44.5q-76 0 -147 -20t-132.5 -56.5t-112.5 -87.5t-87 -112.5 t-56 -132t-20 -145.5zM359 744q0 105 30 188.5t86 141t135.5 88.5t178.5 31q73 0 136.5 -22.5t113 -65t84 -104t49.5 -138.5h-227q-29 138 -159 138q-48 0 -86 -18.5t-64.5 -52t-40 -81.5t-13.5 -108q0 -56 14 -102.5t40.5 -79.5t63 -51.5t81.5 -18.5q137 0 172 150h230 q-87 -350 -401 -350q-95 0 -173 32t-133.5 91.5t-86 143.5t-30.5 188z" />
<glyph unicode="&#xaa;" horiz-adv-x="849" d="M14 941q0 302 490 282h19q0 41 -11 62t-29 30t-38 11.5t-43 2.5q-119 0 -124 -83h-243q24 296 373 296q87 0 154 -17.5t112 -55.5t68.5 -99t23.5 -149v-518h-239v32q-47 -25 -100.5 -36.5t-114.5 -11.5q-65 0 -119.5 18t-94 51.5t-62 80.5t-22.5 104zM261 946 q0 -49 91 -49q21 0 45.5 5.5t48.5 16t45.5 25t35.5 31.5v68h-47q-219 0 -219 -97z" />
<glyph unicode="&#xab;" horiz-adv-x="1277" d="M117 589l359 515h253l-294 -516l294 -514h-253zM520 589l357 515h254l-293 -515l293 -515h-254z" />
<glyph unicode="&#xac;" horiz-adv-x="1444" d="M186 550v230h1040v-511h-233v281h-807z" />
<glyph unicode="&#xad;" horiz-adv-x="706" d="M45 418v262h616v-262h-616z" />
<glyph unicode="&#xae;" horiz-adv-x="1562" d="M15 748q0 104 28 201.5t78.5 182t121 154.5t155.5 120t182 77.5t201 27.5q103 0 199.5 -28t181.5 -78t155 -120.5t120.5 -155t78.5 -181.5t28 -200q0 -104 -27.5 -201.5t-77 -182.5t-119 -155t-154.5 -120.5t-182.5 -78t-202.5 -27.5q-104 0 -201 27t-182.5 77 t-155.5 119.5t-120.5 154.5t-78.5 183t-28 204zM226 748q0 -116 44 -217.5t119.5 -177.5t176.5 -120t215 -44q112 0 212.5 44t176 120t119.5 177.5t44 217.5q0 112 -43.5 212.5t-118.5 176.5t-175.5 120.5t-214.5 44.5q-76 0 -147 -20t-132.5 -56.5t-112.5 -87.5t-87 -112.5 t-56 -132t-20 -145.5zM458 324v841h257q351 0 351 -258q0 -88 -32.5 -147.5t-94.5 -89.5q23 -21 42.5 -49.5t33.5 -62.5l85 -234h-241l-52 179q-23 63 -61 92.5t-73 29.5v-301h-215zM673 820h30q139 0 139 78q0 74 -143 74h-26v-152z" />
<glyph unicode="&#xaf;" horiz-adv-x="1148" d="M-10 1669v191h1171v-191h-1171z" />
<glyph unicode="&#xb0;" horiz-adv-x="919" d="M110 1289q0 67 26.5 127t71.5 105t105 71t128 26q69 0 129 -27t104.5 -72.5t70 -105t25.5 -124.5q0 -68 -26 -128.5t-71 -105.5t-105 -71.5t-127 -26.5q-68 0 -128 26t-105 71t-71.5 105.5t-26.5 129.5zM314 1289q0 -27 9.5 -50.5t27 -41.5t40.5 -28.5t50 -10.5t50 10.5 t40.5 28.5t27.5 41.5t10 50.5t-10 50t-27.5 40.5t-41 27.5t-49.5 10q-27 0 -50 -10t-40.5 -27t-27 -40.5t-9.5 -50.5z" />
<glyph unicode="&#xb1;" horiz-adv-x="1341" d="M99 0v259h1089v-259h-1089zM99 703v260h412v415h265v-415h412v-260h-412v-414h-265v414h-412z" />
<glyph unicode="&#xb2;" horiz-adv-x="765" d="M14 755q17 121 84 220.5t195 177.5q54 33 89.5 58.5t57 47t30 40t8.5 38.5q0 71 -94 71q-95 0 -119 -103h-248q58 313 368 313q82 0 146.5 -20.5t109.5 -56.5t69 -86t24 -109q0 -51 -12 -92.5t-40 -78.5t-74 -73t-113 -76q-23 -14 -45 -28.5t-41 -28.5h330v-214h-725z " />
<glyph unicode="&#xb3;" horiz-adv-x="765" d="M11 1036h255q12 -92 111 -92q110 0 110 94q0 62 -113 62h-106v182q186 0 186 85q0 42 -79 42t-97 -75h-253q60 284 352 284q77 0 137.5 -18t102.5 -50t64.5 -75t22.5 -93q0 -111 -72 -171q108 -59 108 -193q0 -60 -25 -111.5t-71 -89.5t-112.5 -59.5t-148.5 -21.5 q-329 0 -372 300z" />
<glyph unicode="&#xb4;" horiz-adv-x="777" d="M126 1155l170 357h346l-279 -357h-237z" />
<glyph unicode="&#xb5;" horiz-adv-x="1180" d="M114 -388v1486h270v-730q0 -154 155 -154q30 0 55.5 6.5t50.5 22t51.5 41t57.5 63.5v751h271v-828q0 -38 24 -53t87 -15v-213h-140q-156 0 -214 101q-66 -60 -134 -87t-147 -27q-60 0 -117 18v-382h-270z" />
<glyph unicode="&#xb6;" horiz-adv-x="1140" d="M16 1038q0 107 35 190.5t99.5 140.5t156.5 86.5t206 29.5h607v-228h-94v-1645h-253v1645h-122v-1645h-251v1000q-94 11 -166 48t-120.5 94t-73 129.5t-24.5 154.5z" />
<glyph unicode="&#xb7;" horiz-adv-x="616" d="M151 623v283h287v-283h-287z" />
<glyph unicode="&#xb8;" horiz-adv-x="765" d="M107 -253q55 -9 94.5 -11.5t62.5 -2.5q85 0 85 37q0 34 -142 34v228h234v-77q45 -8 73.5 -25.5t46.5 -40t26 -51t8 -71.5q0 -62 -19 -107t-59.5 -74.5t-105 -44t-154.5 -14.5q-11 0 -30.5 0.5t-41 1.5t-42.5 2.5t-36 2.5v213z" />
<glyph unicode="&#xb9;" horiz-adv-x="765" d="M77 1210v216q269 0 269 192h202v-863h-242v480q-84 -25 -229 -25z" />
<glyph unicode="&#xba;" horiz-adv-x="838" d="M30 1111q0 100 28 179.5t79 135.5t122 86t157 30q84 0 155 -30.5t122 -86.5t79.5 -135.5t28.5 -178.5q0 -102 -28.5 -182.5t-79.5 -136t-122 -85t-155 -29.5q-88 0 -159 29t-121.5 84t-78 135.5t-27.5 184.5zM276 1111q0 -209 140 -209t140 209q0 204 -140 204t-140 -204 z" />
<glyph unicode="&#xbb;" horiz-adv-x="1277" d="M94 74l293 514l-293 516h252l361 -515l-360 -515h-253zM497 74l293 514l-293 516h253l358 -515l-358 -515h-253z" />
<glyph unicode="&#xbc;" horiz-adv-x="1771" d="M110 1119v207q249 0 249 178h197v-805h-233v442q-78 -22 -213 -22zM207 0l1054 1485h263l-1054 -1485h-263zM928 147v175l411 481h183v-445h100v-211h-100v-147h-228v147h-366zM1207 358h87v104z" />
<glyph unicode="&#xbd;" horiz-adv-x="1771" d="M111 1119v207q249 0 249 178h197v-805h-233v442q-78 -22 -213 -22zM172 0l1055 1485h263l-1054 -1485h-264zM965 0q27 226 273 375q58 35 92 58t51 40.5t22 33t5 35.5q0 62 -83 62q-86 0 -107 -96h-236q54 298 344 298q76 0 137 -19t103 -53t64.5 -81t22.5 -102 q0 -47 -12 -86t-39 -74.5t-69.5 -70t-103.5 -72.5q-27 -17 -36 -20.5t-12 -4t-5.5 -3t-16.5 -17.5h296v-203h-690z" />
<glyph unicode="&#xbe;" horiz-adv-x="1771" d="M60 974h245q10 -94 99 -94q100 0 100 85q0 52 -103 52h-99v194q170 0 170 55q0 38 -70 38q-69 0 -86 -79h-243q58 279 331 279q73 0 129.5 -17.5t95.5 -47.5t59.5 -70.5t20.5 -86.5q0 -102 -61 -157q96 -57 96 -180q0 -56 -23.5 -104t-66.5 -83.5t-105 -56t-138 -20.5 q-309 0 -351 293zM253 0l1056 1485h260l-1054 -1485h-262zM957 147v175l411 481h183v-445h99v-211h-99v-147h-228v147h-366zM1235 358h88v104q-18 -22 -38 -45.5t-50 -58.5z" />
<glyph unicode="&#xbf;" horiz-adv-x="1180" d="M72 16q0 54 10.5 100.5t36 91.5t67.5 91t105 99q54 45 84.5 78t46 70t19 85.5t3.5 124.5h259q0 -118 -11.5 -197t-34.5 -127q-45 -88 -161 -188q-51 -44 -80.5 -74.5t-44.5 -54.5t-19 -44t-4 -43q0 -47 16 -85.5t45 -66t69 -42.5t88 -15q189 0 229 262h274 q-10 -113 -51 -204t-107 -155t-154 -98t-191 -34q-110 0 -201 32t-156 88.5t-101 134.5t-36 171zM425 816v282h287v-282h-287z" />
<glyph unicode="&#xc0;" horiz-adv-x="1461" d="M-3 0l583 1518h270l618 -1518h-316l-166 434h-531l-158 -434h-300zM423 1974h347l170 -357h-237zM540 675h358l-184 481z" />
<glyph unicode="&#xc1;" horiz-adv-x="1461" d="M-3 0l583 1518h270l618 -1518h-316l-166 434h-531l-158 -434h-300zM540 675h358l-184 481zM545 1617l170 357h346l-279 -357h-237z" />
<glyph unicode="&#xc2;" horiz-adv-x="1461" d="M-3 0l583 1518h270l618 -1518h-316l-166 434h-531l-158 -434h-300zM340 1617l280 356h228l280 -356h-312l-82 123l-82 -123h-312zM540 675h358l-184 481z" />
<glyph unicode="&#xc3;" horiz-adv-x="1461" d="M-3 0l583 1518h270l618 -1518h-316l-166 434h-531l-158 -434h-300zM335 1617q0 71 18.5 128t50.5 97t76 61.5t95 21.5q15 0 39 -6t50.5 -15.5t54 -20t50.5 -20t39 -15.5t20 -6q26 0 26 84h212q0 -72 -18 -129t-49.5 -96.5t-75 -60.5t-95.5 -21q-15 0 -39 6t-51 15t-55 19 t-51 19t-38.5 15t-18.5 6q-27 0 -26 -82h-214zM540 675h358l-184 481z" />
<glyph unicode="&#xc4;" horiz-adv-x="1461" d="M-3 0l583 1518h270l618 -1518h-316l-166 434h-531l-158 -434h-300zM393 1617v285h271v-285h-271zM540 675h358l-184 481zM794 1617v285h267v-285h-267z" />
<glyph unicode="&#xc5;" horiz-adv-x="1461" d="M-3 0l583 1518h270l618 -1518h-316l-166 434h-531l-158 -434h-300zM493 1741q0 44 17.5 84.5t47.5 71t70.5 48.5t87.5 18q46 0 86.5 -18.5t71 -49t48.5 -71t18 -83.5q0 -45 -17 -85t-46 -70.5t-69 -48.5t-86 -18q-49 0 -91 16t-72.5 45t-48 70t-17.5 91zM540 675h358 l-184 481zM660 1741q0 -27 15.5 -44.5t38.5 -17.5q28 0 44 17.5t16 44.5q0 23 -17 41t-41 18q-23 0 -39.5 -18t-16.5 -41z" />
<glyph unicode="&#xc6;" horiz-adv-x="2121" d="M0 0l877 1518h1103v-261h-713v-343h657v-259h-657v-394h745v-261h-1027v413h-429l-229 -413h-327zM696 672h289v523z" />
<glyph unicode="&#xc7;" horiz-adv-x="1577" d="M115 760q0 179 50.5 324t143.5 247.5t224.5 158t293.5 55.5q123 0 232 -39.5t193.5 -111.5t139 -173.5t66.5 -225.5h-290q-5 68 -32.5 122.5t-72.5 93t-105.5 59t-129.5 20.5q-98 0 -176 -34.5t-133.5 -102t-85 -166.5t-29.5 -227t30 -227t84.5 -166.5t132 -103 t173.5 -35.5q73 0 133.5 20.5t105.5 61t72 99t34 135.5h289q-12 -136 -63.5 -241.5t-135 -178t-193.5 -110.5t-239 -38q-164 0 -295.5 55.5t-224 157.5t-142.5 247t-50 324zM607 -253q55 -9 94.5 -11.5t62.5 -2.5q85 0 85 37q0 34 -142 34v228h234v-77q45 -8 73.5 -25.5 t46.5 -40t26 -51t8 -71.5q0 -62 -19 -107t-59.5 -74.5t-105 -44t-154.5 -14.5q-11 0 -30.5 0.5t-41 1.5t-42.5 2.5t-36 2.5v213z" />
<glyph unicode="&#xc8;" horiz-adv-x="1461" d="M179 0v1518h1127v-261h-844v-343h790v-259h-790v-394h877v-261h-1160zM423 1974h347l170 -357h-237z" />
<glyph unicode="&#xc9;" horiz-adv-x="1461" d="M179 0v1518h1127v-261h-844v-343h790v-259h-790v-394h877v-261h-1160zM626 1617l170 357h346l-279 -357h-237z" />
<glyph unicode="&#xca;" horiz-adv-x="1461" d="M179 0v1518h1127v-261h-844v-343h790v-259h-790v-394h877v-261h-1160zM370 1617l280 356h228l280 -356h-312l-82 123l-82 -123h-312z" />
<glyph unicode="&#xcb;" horiz-adv-x="1461" d="M179 0v1518h1127v-261h-844v-343h790v-259h-790v-394h877v-261h-1160zM373 1617v285h271v-285h-271zM774 1617v285h267v-285h-267z" />
<glyph unicode="&#xcc;" horiz-adv-x="635" d="M13 1974h347l170 -357h-237zM192 0v1518h282v-1518h-282z" />
<glyph unicode="&#xcd;" horiz-adv-x="635" d="M126 1617l170 357h346l-279 -357h-237zM192 0v1518h282v-1518h-282z" />
<glyph unicode="&#xce;" horiz-adv-x="635" d="M-60 1617l280 356h228l280 -356h-312l-82 123l-82 -123h-312zM192 0v1518h282v-1518h-282z" />
<glyph unicode="&#xcf;" horiz-adv-x="635" d="M9 1617v285h271v-285h-271zM192 0v1518h282v-1518h-282zM410 1617v285h267v-285h-267z" />
<glyph unicode="&#xd0;" horiz-adv-x="1577" d="M23 630v261h158v627h500q775 0 775 -751q0 -767 -775 -767h-500v630h-158zM464 261h216q142 0 236 34.5t150 99.5t79 159t23 213q0 115 -22.5 206t-78.5 154t-150 96.5t-237 33.5h-216v-366h390v-261h-390v-369z" />
<glyph unicode="&#xd1;" horiz-adv-x="1577" d="M180 0v1518h268l674 -1017v1017h275v-1518h-267l-677 1015v-1015h-273zM413 1617q0 71 18.5 128t50.5 97t76 61.5t95 21.5q15 0 39 -6t50.5 -15.5t54 -20t50.5 -20t39 -15.5t20 -6q26 0 26 84h212q0 -72 -18 -129t-49.5 -96.5t-75 -60.5t-95.5 -21q-15 0 -39 6t-51 15 t-55 19t-51 19t-38.5 15t-18.5 6q-27 0 -26 -82h-214z" />
<glyph unicode="&#xd2;" horiz-adv-x="1696" d="M117 760q0 177 54.5 321.5t152 247t231.5 158t292 55.5q159 0 293 -56t231 -158.5t151.5 -247t54.5 -320.5q0 -174 -53.5 -318t-150.5 -247.5t-231 -161t-295 -57.5t-295 57t-231 160t-150.5 247.5t-53.5 319.5zM406 760q0 -125 33 -223.5t91.5 -167t139 -105 t176.5 -36.5q97 0 178.5 36.5t140 105t91 167t32.5 223.5q0 126 -33 224.5t-91.5 166t-139 103t-174.5 35.5q-96 0 -177.5 -36t-141 -104t-92.5 -166.5t-33 -222.5zM511 1974h347l170 -357h-237z" />
<glyph unicode="&#xd3;" horiz-adv-x="1696" d="M117 760q0 177 54.5 321.5t152 247t231.5 158t292 55.5q159 0 293 -56t231 -158.5t151.5 -247t54.5 -320.5q0 -174 -53.5 -318t-150.5 -247.5t-231 -161t-295 -57.5t-295 57t-231 160t-150.5 247.5t-53.5 319.5zM406 760q0 -125 33 -223.5t91.5 -167t139 -105 t176.5 -36.5q97 0 178.5 36.5t140 105t91 167t32.5 223.5q0 126 -33 224.5t-91.5 166t-139 103t-174.5 35.5q-96 0 -177.5 -36t-141 -104t-92.5 -166.5t-33 -222.5zM603 1617l170 357h346l-279 -357h-237z" />
<glyph unicode="&#xd4;" horiz-adv-x="1696" d="M117 760q0 177 54.5 321.5t152 247t231.5 158t292 55.5q159 0 293 -56t231 -158.5t151.5 -247t54.5 -320.5q0 -174 -53.5 -318t-150.5 -247.5t-231 -161t-295 -57.5t-295 57t-231 160t-150.5 247.5t-53.5 319.5zM406 760q0 -125 33 -223.5t91.5 -167t139 -105 t176.5 -36.5q97 0 178.5 36.5t140 105t91 167t32.5 223.5q0 126 -33 224.5t-91.5 166t-139 103t-174.5 35.5q-96 0 -177.5 -36t-141 -104t-92.5 -166.5t-33 -222.5zM456 1617l280 356h228l280 -356h-312l-82 123l-82 -123h-312z" />
<glyph unicode="&#xd5;" horiz-adv-x="1696" d="M117 760q0 177 54.5 321.5t152 247t231.5 158t292 55.5q159 0 293 -56t231 -158.5t151.5 -247t54.5 -320.5q0 -174 -53.5 -318t-150.5 -247.5t-231 -161t-295 -57.5t-295 57t-231 160t-150.5 247.5t-53.5 319.5zM406 760q0 -125 33 -223.5t91.5 -167t139 -105 t176.5 -36.5q97 0 178.5 36.5t140 105t91 167t32.5 223.5q0 126 -33 224.5t-91.5 166t-139 103t-174.5 35.5q-96 0 -177.5 -36t-141 -104t-92.5 -166.5t-33 -222.5zM463 1617q0 71 18.5 128t50.5 97t76 61.5t95 21.5q15 0 39 -6t50.5 -15.5t54 -20t50.5 -20t39 -15.5t20 -6 q26 0 26 84h212q0 -72 -18 -129t-49.5 -96.5t-75 -60.5t-95.5 -21q-15 0 -39 6t-51 15t-55 19t-51 19t-38.5 15t-18.5 6q-27 0 -26 -82h-214z" />
<glyph unicode="&#xd6;" horiz-adv-x="1696" d="M117 760q0 177 54.5 321.5t152 247t231.5 158t292 55.5q159 0 293 -56t231 -158.5t151.5 -247t54.5 -320.5q0 -174 -53.5 -318t-150.5 -247.5t-231 -161t-295 -57.5t-295 57t-231 160t-150.5 247.5t-53.5 319.5zM406 760q0 -125 33 -223.5t91.5 -167t139 -105 t176.5 -36.5q97 0 178.5 36.5t140 105t91 167t32.5 223.5q0 126 -33 224.5t-91.5 166t-139 103t-174.5 35.5q-96 0 -177.5 -36t-141 -104t-92.5 -166.5t-33 -222.5zM516 1617v285h271v-285h-271zM917 1617v285h267v-285h-267z" />
<glyph unicode="&#xd7;" horiz-adv-x="1238" d="M144 434l298 298l-298 297l176 177l298 -298l298 298l177 -177l-298 -297l298 -298l-177 -177l-298 298l-298 -298z" />
<glyph unicode="&#xd8;" horiz-adv-x="1651" d="M37 70l178 196q-74 106 -108.5 226.5t-34.5 267.5q0 177 54.5 321.5t152 247t231.5 158t292 55.5q128 0 234 -34t197 -101l166 184l170 -142l-180 -197q143 -206 143 -492q0 -174 -53.5 -318t-150.5 -247.5t-231 -161t-295 -57.5q-241 0 -432 137l-166 -187zM361 760 q0 -81 12.5 -149t37.5 -126l645 723q-54 39 -116 60t-135 21q-96 0 -177.5 -36t-141 -104t-92.5 -166.5t-33 -222.5zM548 309q53 -39 117 -60t136 -21q97 0 178.5 36.5t140 105t91.5 167t33 223.5q0 78 -12.5 147.5t-38.5 127.5z" />
<glyph unicode="&#xd9;" horiz-adv-x="1577" d="M180 648v870h283v-867q0 -129 21.5 -210.5t63 -127t102 -62t138.5 -16.5q79 0 140 17t101.5 62.5t61.5 126.5t21 210v867h285v-870q0 -158 -27.5 -283t-96.5 -211.5t-186.5 -132t-298.5 -45.5q-143 0 -244 28.5t-168.5 77.5t-106.5 115t-59 140.5t-25 154t-5 156.5z M481 1974h347l170 -357h-237z" />
<glyph unicode="&#xda;" horiz-adv-x="1577" d="M180 648v870h283v-867q0 -129 21.5 -210.5t63 -127t102 -62t138.5 -16.5q79 0 140 17t101.5 62.5t61.5 126.5t21 210v867h285v-870q0 -158 -27.5 -283t-96.5 -211.5t-186.5 -132t-298.5 -45.5q-143 0 -244 28.5t-168.5 77.5t-106.5 115t-59 140.5t-25 154t-5 156.5z M623 1617l170 357h346l-279 -357h-237z" />
<glyph unicode="&#xdb;" horiz-adv-x="1577" d="M180 648v870h283v-867q0 -129 21.5 -210.5t63 -127t102 -62t138.5 -16.5q79 0 140 17t101.5 62.5t61.5 126.5t21 210v867h285v-870q0 -158 -27.5 -283t-96.5 -211.5t-186.5 -132t-298.5 -45.5q-143 0 -244 28.5t-168.5 77.5t-106.5 115t-59 140.5t-25 154t-5 156.5z M386 1617l280 356h228l280 -356h-312l-82 123l-82 -123h-312z" />
<glyph unicode="&#xdc;" horiz-adv-x="1577" d="M180 648v870h283v-867q0 -129 21.5 -210.5t63 -127t102 -62t138.5 -16.5q79 0 140 17t101.5 62.5t61.5 126.5t21 210v867h285v-870q0 -158 -27.5 -283t-96.5 -211.5t-186.5 -132t-298.5 -45.5q-143 0 -244 28.5t-168.5 77.5t-106.5 115t-59 140.5t-25 154t-5 156.5z M451 1617v285h271v-285h-271zM852 1617v285h267v-285h-267z" />
<glyph unicode="&#xdd;" horiz-adv-x="1461" d="M-12 1518h343l401 -615l399 615h343l-601 -880v-638h-283v638zM565 1617l170 357h346l-279 -357h-237z" />
<glyph unicode="&#xde;" horiz-adv-x="1416" d="M134 0v1518h283v-279h299q92 0 170.5 -7.5t144 -28.5t116.5 -59.5t89 -100.5q76 -125 76 -267q0 -242 -147.5 -364t-435.5 -122h-312v-290h-283zM417 550h317q78 0 133 14.5t89.5 42t50.5 68t16 93.5q0 36 -9 67.5t-25 57t-38 43t-47 25.5q-29 9 -72 13t-104 4h-311v-428 z" />
<glyph unicode="&#xdf;" horiz-adv-x="1296" d="M115 0v997q0 511 458 511q91 0 165.5 -25t127.5 -67.5t81.5 -100.5t28.5 -124q0 -109 -102 -290q-20 -35 -30.5 -59t-10.5 -38q0 -15 5 -26.5t21.5 -26.5t47 -36.5t82.5 -55.5q63 -42 104 -79.5t65 -75.5t33.5 -78t9.5 -86q0 -74 -28.5 -140t-80.5 -116t-125 -79 t-161 -29q-80 0 -149 24.5t-121 70.5t-83 110.5t-35 144.5h262q15 -120 122 -120q58 0 92 33.5t34 87.5q0 25 -5.5 42t-21 33.5t-43.5 35.5t-72 48q-56 34 -98.5 67.5t-71 68t-42.5 72.5t-14 82q0 38 19.5 91t56.5 121q39 72 59.5 117t20.5 67q0 46 -41 75.5t-105 29.5 q-42 0 -76 -12.5t-58.5 -45t-37.5 -88.5t-13 -142v-989h-270z" />
<glyph unicode="&#xe0;" d="M97 312q0 398 656 398h43q-1 45 -7 79t-26.5 57.5t-59.5 35.5t-105 12q-195 0 -203 -173h-273q23 403 487 403q106 0 190.5 -19t143.5 -67t91 -131t32 -210v-697h-270v57q-134 -81 -310 -81q-83 0 -154 24t-123 68.5t-82 106.5t-30 137zM305 1512h347l170 -357h-237z M372 321q0 -56 45.5 -85.5t120.5 -29.5q38 0 75 7.5t71 22t62.5 36.5t49.5 51v166h-79q-345 0 -345 -168z" />
<glyph unicode="&#xe1;" d="M97 312q0 398 656 398h43q-1 45 -7 79t-26.5 57.5t-59.5 35.5t-105 12q-195 0 -203 -173h-273q23 403 487 403q106 0 190.5 -19t143.5 -67t91 -131t32 -210v-697h-270v57q-134 -81 -310 -81q-83 0 -154 24t-123 68.5t-82 106.5t-30 137zM372 321q0 -56 45.5 -85.5 t120.5 -29.5q38 0 75 7.5t71 22t62.5 36.5t49.5 51v166h-79q-345 0 -345 -168zM427 1155l170 357h346l-279 -357h-237z" />
<glyph unicode="&#xe2;" d="M97 312q0 398 656 398h43q-1 45 -7 79t-26.5 57.5t-59.5 35.5t-105 12q-195 0 -203 -173h-273q23 403 487 403q106 0 190.5 -19t143.5 -67t91 -131t32 -210v-697h-270v57q-134 -81 -310 -81q-83 0 -154 24t-123 68.5t-82 106.5t-30 137zM220 1155l280 356h228l280 -356 h-312l-82 123l-82 -123h-312zM372 321q0 -56 45.5 -85.5t120.5 -29.5q38 0 75 7.5t71 22t62.5 36.5t49.5 51v166h-79q-345 0 -345 -168z" />
<glyph unicode="&#xe3;" d="M97 312q0 398 656 398h43q-1 45 -7 79t-26.5 57.5t-59.5 35.5t-105 12q-195 0 -203 -173h-273q23 403 487 403q106 0 190.5 -19t143.5 -67t91 -131t32 -210v-697h-270v57q-134 -81 -310 -81q-83 0 -154 24t-123 68.5t-82 106.5t-30 137zM227 1184q0 71 18.5 128t50.5 97 t76 61.5t95 21.5q15 0 39 -6t50.5 -15.5t54 -20t50.5 -20t39 -15.5t20 -6q26 0 26 84h212q0 -72 -18 -129t-49.5 -96.5t-75 -60.5t-95.5 -21q-15 0 -39 6t-51 15t-55 19t-51 19t-38.5 15t-18.5 6q-27 0 -26 -82h-214zM372 321q0 -56 45.5 -85.5t120.5 -29.5q38 0 75 7.5 t71 22t62.5 36.5t49.5 51v166h-79q-345 0 -345 -168z" />
<glyph unicode="&#xe4;" d="M97 312q0 398 656 398h43q-1 45 -7 79t-26.5 57.5t-59.5 35.5t-105 12q-195 0 -203 -173h-273q23 403 487 403q106 0 190.5 -19t143.5 -67t91 -131t32 -210v-697h-270v57q-134 -81 -310 -81q-83 0 -154 24t-123 68.5t-82 106.5t-30 137zM285 1198v285h271v-285h-271z M372 321q0 -56 45.5 -85.5t120.5 -29.5q38 0 75 7.5t71 22t62.5 36.5t49.5 51v166h-79q-345 0 -345 -168zM686 1198v285h267v-285h-267z" />
<glyph unicode="&#xe5;" d="M97 312q0 398 656 398h43q-1 45 -7 79t-26.5 57.5t-59.5 35.5t-105 12q-195 0 -203 -173h-273q23 403 487 403q106 0 190.5 -19t143.5 -67t91 -131t32 -210v-697h-270v57q-134 -81 -310 -81q-83 0 -154 24t-123 68.5t-82 106.5t-30 137zM372 321q0 -56 45.5 -85.5 t120.5 -29.5q38 0 75 7.5t71 22t62.5 36.5t49.5 51v166h-79q-345 0 -345 -168zM393 1389q0 44 17 83.5t46 69t69 47t85 17.5t85 -18t70 -48t47.5 -69t17.5 -82q0 -44 -17 -83.5t-46.5 -69t-70 -47t-86.5 -17.5q-45 0 -85 16.5t-69 46t-46 69t-17 85.5zM556 1389 q0 -24 16 -42t38 -18q24 0 40.5 17t16.5 43q0 23 -16.5 40.5t-40.5 17.5q-22 0 -38 -17.5t-16 -40.5z" />
<glyph unicode="&#xe6;" horiz-adv-x="1887" d="M67 312q0 398 636 398h43q-2 43 -9.5 77t-27.5 58t-56 36.5t-93 12.5q-181 0 -196 -173h-273q32 403 478 403q242 0 353 -112q128 112 319 112q119 0 213 -39t159.5 -112.5t100.5 -180.5t35 -242v-87h-727q20 -129 82 -193t155 -64q36 0 70.5 12t62 35.5t45 57.5t19.5 79 h282q-14 -100 -54.5 -177t-102.5 -129.5t-144 -80t-178 -27.5q-248 0 -390 163q-29 -36 -65 -66t-86 -51.5t-116 -33.5t-154 -12q-85 0 -155 24t-120.5 68.5t-78 106.5t-27.5 137zM342 321q0 -115 156 -115q56 0 102 16.5t78.5 48.5t50.5 79.5t18 110.5v28h-76 q-329 0 -329 -168zM1029 692h430q-48 202 -218 202q-167 0 -212 -202z" />
<glyph unicode="&#xe7;" horiz-adv-x="1106" d="M89 550q0 135 37 242t105.5 180.5t164.5 112.5t214 39q91 0 169 -27t138.5 -80t100 -130.5t53.5 -179.5h-284q-2 46 -16 81t-37.5 58.5t-55.5 35.5t-68 12q-54 0 -98.5 -21.5t-77 -65t-50 -108t-17.5 -149.5q0 -86 17.5 -150.5t50 -107.5t77 -64.5t98.5 -21.5 q34 0 65 11.5t55.5 34.5t39.5 57.5t17 80.5h284q-14 -103 -54.5 -180.5t-101 -129.5t-138 -78t-167.5 -26q-116 0 -212 38t-164.5 111t-106.5 180t-38 245zM367 -253q55 -9 94.5 -11.5t62.5 -2.5q85 0 85 37q0 34 -142 34v228h234v-77q45 -8 73.5 -25.5t46.5 -40t26 -51 t8 -71.5q0 -62 -19 -107t-59.5 -74.5t-105 -44t-154.5 -14.5q-11 0 -30.5 0.5t-41 1.5t-42.5 2.5t-36 2.5v213z" />
<glyph unicode="&#xe8;" d="M91 550q0 133 38 239.5t106.5 180.5t164 114t211.5 40q120 0 216 -39t164 -112.5t104.5 -180.5t36.5 -242v-87h-756q10 -65 33 -113t56 -80t75.5 -48t90.5 -16q36 0 72 12t65 35.5t47.5 57.5t19.5 79h286q-15 -100 -58 -177t-107.5 -129.5t-147.5 -80t-177 -27.5 q-120 0 -219.5 38.5t-171 112t-110.5 180.5t-39 243zM305 1512h347l170 -357h-237zM382 692h458q-26 102 -85.5 152t-143.5 50q-81 0 -142 -50t-87 -152z" />
<glyph unicode="&#xe9;" d="M91 550q0 133 38 239.5t106.5 180.5t164 114t211.5 40q120 0 216 -39t164 -112.5t104.5 -180.5t36.5 -242v-87h-756q10 -65 33 -113t56 -80t75.5 -48t90.5 -16q36 0 72 12t65 35.5t47.5 57.5t19.5 79h286q-15 -100 -58 -177t-107.5 -129.5t-147.5 -80t-177 -27.5 q-120 0 -219.5 38.5t-171 112t-110.5 180.5t-39 243zM382 692h458q-26 102 -85.5 152t-143.5 50q-81 0 -142 -50t-87 -152zM486 1155l170 357h346l-279 -357h-237z" />
<glyph unicode="&#xea;" d="M91 550q0 133 38 239.5t106.5 180.5t164 114t211.5 40q120 0 216 -39t164 -112.5t104.5 -180.5t36.5 -242v-87h-756q10 -65 33 -113t56 -80t75.5 -48t90.5 -16q36 0 72 12t65 35.5t47.5 57.5t19.5 79h286q-15 -100 -58 -177t-107.5 -129.5t-147.5 -80t-177 -27.5 q-120 0 -219.5 38.5t-171 112t-110.5 180.5t-39 243zM220 1155l280 356h228l280 -356h-312l-82 123l-82 -123h-312zM382 692h458q-26 102 -85.5 152t-143.5 50q-81 0 -142 -50t-87 -152z" />
<glyph unicode="&#xeb;" d="M91 550q0 133 38 239.5t106.5 180.5t164 114t211.5 40q120 0 216 -39t164 -112.5t104.5 -180.5t36.5 -242v-87h-756q10 -65 33 -113t56 -80t75.5 -48t90.5 -16q36 0 72 12t65 35.5t47.5 57.5t19.5 79h286q-15 -100 -58 -177t-107.5 -129.5t-147.5 -80t-177 -27.5 q-120 0 -219.5 38.5t-171 112t-110.5 180.5t-39 243zM275 1198v285h271v-285h-271zM382 692h458q-26 102 -85.5 152t-143.5 50q-81 0 -142 -50t-87 -152zM676 1198v285h267v-285h-267z" />
<glyph unicode="&#xec;" horiz-adv-x="528" d="M-53 1512h347l170 -357h-237zM142 0v1098h270v-1098h-270z" />
<glyph unicode="&#xed;" horiz-adv-x="528" d="M96 1155l171 357h346l-279 -357h-238zM142 0v1098h270v-1098h-270z" />
<glyph unicode="&#xee;" horiz-adv-x="528" d="M-115 1155l280 356h228l280 -356h-312l-84 124l-82 -124h-310zM142 0v1098h270v-1098h-270z" />
<glyph unicode="&#xef;" horiz-adv-x="528" d="M-38 1198v285h270v-285h-270zM142 0v1098h270v-1098h-270zM330 1198v285h268v-285h-268z" />
<glyph unicode="&#xf0;" horiz-adv-x="1180" d="M46 538q0 96 20 177.5t57 146.5t99.5 119.5t155.5 85.5t188 31q16 0 31 -1t29 -3q-11 16 -21.5 30.5t-38.5 51.5l-241 -106l-64 154l176 74q-43 35 -108 81t-151 105h368q57 -44 109 -84l216 100l73 -155l-163 -75q95 -111 149.5 -198t89 -173t51 -175t16.5 -186 q0 -132 -37 -236t-105 -176.5t-164.5 -111t-214.5 -38.5q-116 0 -212 38t-164.5 110t-106 176.5t-37.5 237.5zM324 538q0 -84 17.5 -146t49.5 -103.5t76.5 -62t98.5 -20.5t98.5 20.5t76.5 62t49.5 103.5t17.5 146q0 82 -17.5 144.5t-49.5 104t-76.5 62.5t-98.5 21t-98.5 -21 t-76.5 -62.5t-49.5 -104t-17.5 -144.5z" />
<glyph unicode="&#xf1;" d="M156 0v1098h271v-65q117 91 255 91q389 0 389 -419v-705h-273v697q0 101 -33 145t-109 44q-110 0 -229 -133v-753h-271zM257 1184q0 71 18.5 128t50.5 97t76 61.5t95 21.5q15 0 39 -6t50.5 -15.5t54 -20t50.5 -20t39 -15.5t20 -6q26 0 26 84h212q0 -72 -18 -129 t-49.5 -96.5t-75 -60.5t-95.5 -21q-15 0 -39 6t-51 15t-55 19t-51 19t-38.5 15t-18.5 6q-27 0 -26 -82h-214z" />
<glyph unicode="&#xf2;" d="M91 550q0 135 37 242t105.5 180.5t164.5 112.5t213 39q120 0 216 -39t164 -112.5t104.5 -180.5t36.5 -242q0 -136 -37.5 -243t-105.5 -180.5t-164 -112t-214 -38.5q-116 0 -212 38t-164.5 111t-106 180t-37.5 245zM305 1512h347l170 -357h-237zM369 550 q0 -86 17.5 -150.5t49.5 -107.5t76.5 -64.5t98.5 -21.5t98.5 21.5t76.5 64.5t49.5 107.5t17.5 150.5q0 85 -17.5 149.5t-49.5 108t-76.5 65t-98.5 21.5t-98.5 -21.5t-76.5 -65t-49.5 -108t-17.5 -149.5z" />
<glyph unicode="&#xf3;" d="M91 550q0 135 37 242t105.5 180.5t164.5 112.5t213 39q120 0 216 -39t164 -112.5t104.5 -180.5t36.5 -242q0 -136 -37.5 -243t-105.5 -180.5t-164 -112t-214 -38.5q-116 0 -212 38t-164.5 111t-106 180t-37.5 245zM369 550q0 -86 17.5 -150.5t49.5 -107.5t76.5 -64.5 t98.5 -21.5t98.5 21.5t76.5 64.5t49.5 107.5t17.5 150.5q0 85 -17.5 149.5t-49.5 108t-76.5 65t-98.5 21.5t-98.5 -21.5t-76.5 -65t-49.5 -108t-17.5 -149.5zM417 1155l170 357h346l-279 -357h-237z" />
<glyph unicode="&#xf4;" d="M91 550q0 135 37 242t105.5 180.5t164.5 112.5t213 39q120 0 216 -39t164 -112.5t104.5 -180.5t36.5 -242q0 -136 -37.5 -243t-105.5 -180.5t-164 -112t-214 -38.5q-116 0 -212 38t-164.5 111t-106 180t-37.5 245zM230 1155l280 356h228l280 -356h-312l-82 123l-82 -123 h-312zM369 550q0 -86 17.5 -150.5t49.5 -107.5t76.5 -64.5t98.5 -21.5t98.5 21.5t76.5 64.5t49.5 107.5t17.5 150.5q0 85 -17.5 149.5t-49.5 108t-76.5 65t-98.5 21.5t-98.5 -21.5t-76.5 -65t-49.5 -108t-17.5 -149.5z" />
<glyph unicode="&#xf5;" d="M91 550q0 135 37 242t105.5 180.5t164.5 112.5t213 39q120 0 216 -39t164 -112.5t104.5 -180.5t36.5 -242q0 -136 -37.5 -243t-105.5 -180.5t-164 -112t-214 -38.5q-116 0 -212 38t-164.5 111t-106 180t-37.5 245zM257 1184q0 71 18.5 128t50.5 97t76 61.5t95 21.5 q15 0 39 -6t50.5 -15.5t54 -20t50.5 -20t39 -15.5t20 -6q26 0 26 84h212q0 -72 -18 -129t-49.5 -96.5t-75 -60.5t-95.5 -21q-15 0 -39 6t-51 15t-55 19t-51 19t-38.5 15t-18.5 6q-27 0 -26 -82h-214zM369 550q0 -86 17.5 -150.5t49.5 -107.5t76.5 -64.5t98.5 -21.5 t98.5 21.5t76.5 64.5t49.5 107.5t17.5 150.5q0 85 -17.5 149.5t-49.5 108t-76.5 65t-98.5 21.5t-98.5 -21.5t-76.5 -65t-49.5 -108t-17.5 -149.5z" />
<glyph unicode="&#xf6;" d="M91 550q0 135 37 242t105.5 180.5t164.5 112.5t213 39q120 0 216 -39t164 -112.5t104.5 -180.5t36.5 -242q0 -136 -37.5 -243t-105.5 -180.5t-164 -112t-214 -38.5q-116 0 -212 38t-164.5 111t-106 180t-37.5 245zM275 1198v285h271v-285h-271zM369 550 q0 -86 17.5 -150.5t49.5 -107.5t76.5 -64.5t98.5 -21.5t98.5 21.5t76.5 64.5t49.5 107.5t17.5 150.5q0 85 -17.5 149.5t-49.5 108t-76.5 65t-98.5 21.5t-98.5 -21.5t-76.5 -65t-49.5 -108t-17.5 -149.5zM676 1198v285h267v-285h-267z" />
<glyph unicode="&#xf7;" horiz-adv-x="1238" d="M111 608v248h1016v-248h-1016zM476 283v284h286v-284h-286zM476 897v283h286v-283h-286z" />
<glyph unicode="&#xf8;" horiz-adv-x="1180" d="M38 37l113 134q-105 147 -105 379q0 135 37 242t105.5 180.5t164.5 112.5t213 39q75 0 140 -16t123 -48l97 127l164 -121l-107 -141q104 -148 104 -375q0 -136 -37.5 -243t-105.5 -180.5t-164 -112t-214 -38.5q-76 0 -140.5 16t-123.5 48l-98 -126zM323 550 q0 -36 3.5 -68.5t8.5 -62.5l345 446q-25 14 -54.5 21.5t-59.5 7.5q-54 0 -98.5 -21.5t-76.5 -65t-50 -108t-18 -149.5zM444 238q52 -32 122 -32q54 0 98.5 21.5t76.5 64.5t49.5 107.5t17.5 150.5q0 73 -12 132q-303 -387 -352 -444z" />
<glyph unicode="&#xf9;" d="M150 394v704h274v-695q0 -102 33.5 -145.5t108.5 -43.5q124 0 231 132v752h270v-1098h-270v67q-118 -91 -258 -91q-389 0 -389 418zM305 1512h347l170 -357h-237z" />
<glyph unicode="&#xfa;" d="M150 394v704h274v-695q0 -102 33.5 -145.5t108.5 -43.5q124 0 231 132v752h270v-1098h-270v67q-118 -91 -258 -91q-389 0 -389 418zM427 1155l170 357h346l-279 -357h-237z" />
<glyph unicode="&#xfb;" d="M150 394v704h274v-695q0 -102 33.5 -145.5t108.5 -43.5q124 0 231 132v752h270v-1098h-270v67q-118 -91 -258 -91q-389 0 -389 418zM220 1155l280 356h228l280 -356h-312l-82 123l-82 -123h-312z" />
<glyph unicode="&#xfc;" d="M150 394v704h274v-695q0 -102 33.5 -145.5t108.5 -43.5q124 0 231 132v752h270v-1098h-270v67q-118 -91 -258 -91q-389 0 -389 418zM275 1198v285h271v-285h-271zM676 1198v285h267v-285h-267z" />
<glyph unicode="&#xfd;" horiz-adv-x="1106" d="M27 1098h293l234 -691l235 691h294l-404 -1069q-37 -97 -71.5 -177.5t-78 -138.5t-101 -90.5t-141.5 -32.5q-38 0 -78.5 6t-85.5 20v263q54 -21 84.5 -28t48.5 -7q96 0 169 199zM427 1155l170 357h346l-279 -357h-237z" />
<glyph unicode="&#xfe;" horiz-adv-x="1180" d="M112 -388v1872h271v-441q54 40 114.5 60.5t128.5 20.5q111 0 197 -40.5t145 -115t89.5 -179t30.5 -231.5q0 -132 -36 -239.5t-99.5 -183.5t-150 -117.5t-187.5 -41.5q-69 0 -124.5 13t-107.5 44v-421h-271zM383 301q100 -95 221 -95q95 0 150.5 88.5t55.5 263.5 q0 167 -52.5 251.5t-146.5 84.5q-119 0 -228 -144v-449z" />
<glyph unicode="&#xff;" horiz-adv-x="1106" d="M27 1098h293l234 -691l235 691h294l-404 -1069q-37 -97 -71.5 -177.5t-78 -138.5t-101 -90.5t-141.5 -32.5q-38 0 -78.5 6t-85.5 20v263q54 -21 84.5 -28t48.5 -7q96 0 169 199zM206 1198v285h271v-285h-271zM607 1198v285h267v-285h-267z" />
<glyph unicode="&#x152;" horiz-adv-x="2121" d="M78 760q0 184 45 329t128 245.5t202 154t268 53.5q46 0 93.5 -9.5t93 -27.5t87.5 -43t78 -56v112h863v-261h-579v-343h524v-259h-524v-394h611v-261h-895v112q-72 -65 -163 -100.5t-189 -35.5q-148 0 -267 53.5t-202.5 154t-128.5 246t-45 330.5zM368 760 q0 -128 24 -227.5t69.5 -167t110.5 -102.5t147 -35q354 0 354 532q0 529 -348 529q-84 0 -150.5 -34.5t-112 -101.5t-70 -165.5t-24.5 -227.5z" />
<glyph unicode="&#x153;" horiz-adv-x="2003" d="M62 550q0 135 37 242t105.5 180.5t164.5 112.5t214 39q121 0 214 -38t165 -117q71 82 163 118.5t214 36.5q120 0 217 -39t164.5 -112.5t104 -180.5t36.5 -242v-87h-758q9 -66 32.5 -114.5t57 -80t75.5 -47t90 -15.5q38 0 74.5 12.5t65.5 36t48 57.5t22 78h278 q-13 -100 -55.5 -177t-107 -129.5t-148 -80t-177.5 -27.5q-244 0 -394 156q-69 -83 -162 -119.5t-219 -36.5q-116 0 -212 38t-164.5 111t-106.5 180t-38 245zM340 550q0 -86 17.5 -150.5t50 -107.5t77 -64.5t98.5 -21.5q53 0 97.5 21.5t76.5 64.5t50 107.5t18 150.5 q0 85 -18 149.5t-50 108t-76.5 65t-97.5 21.5q-54 0 -98.5 -21.5t-77 -65t-50 -108t-17.5 -149.5zM1112 692h457q-26 100 -87 151t-143 51q-80 0 -141.5 -50t-85.5 -152z" />
<glyph unicode="&#x178;" horiz-adv-x="1461" d="M-12 1518h343l401 -615l399 615h343l-601 -880v-638h-283v638zM373 1558v285h271v-285h-271zM774 1558v285h267v-285h-267z" />
<glyph unicode="&#x2c6;" horiz-adv-x="800" d="M-10 1155l280 356h228l280 -356h-312l-82 123l-82 -123h-312z" />
<glyph unicode="&#x2dc;" horiz-adv-x="840" d="M37 1184q0 71 18.5 128t50.5 97t76 61.5t95 21.5q15 0 39 -6t50.5 -15.5t54 -20t50.5 -20t39 -15.5t20 -6q26 0 26 84h212q0 -72 -18 -129t-49.5 -96.5t-75 -60.5t-95.5 -21q-15 0 -39 6t-51 15t-55 19t-51 19t-38.5 15t-18.5 6q-27 0 -26 -82h-214z" />
<glyph unicode="&#x2000;" horiz-adv-x="987" />
<glyph unicode="&#x2001;" horiz-adv-x="1974" />
<glyph unicode="&#x2002;" horiz-adv-x="987" />
<glyph unicode="&#x2003;" horiz-adv-x="1974" />
<glyph unicode="&#x2004;" horiz-adv-x="658" />
<glyph unicode="&#x2005;" horiz-adv-x="493" />
<glyph unicode="&#x2006;" horiz-adv-x="329" />
<glyph unicode="&#x2007;" horiz-adv-x="329" />
<glyph unicode="&#x2008;" horiz-adv-x="246" />
<glyph unicode="&#x2009;" horiz-adv-x="394" />
<glyph unicode="&#x200a;" horiz-adv-x="109" />
<glyph unicode="&#x2010;" horiz-adv-x="706" d="M45 418v262h616v-262h-616z" />
<glyph unicode="&#x2011;" horiz-adv-x="706" d="M45 418v262h616v-262h-616z" />
<glyph unicode="&#x2012;" horiz-adv-x="706" d="M45 418v262h616v-262h-616z" />
<glyph unicode="&#x2013;" horiz-adv-x="621" d="M-33 435v228h686v-228h-686z" />
<glyph unicode="&#x2014;" horiz-adv-x="1242" d="M-7 435v228h1256v-228h-1256z" />
<glyph unicode="&#x2018;" horiz-adv-x="471" d="M82 949v239q0 72 18.5 131t54.5 100.5t89.5 64.5t124.5 23v-179q-44 0 -67.5 -23t-27.5 -73h95v-283h-287z" />
<glyph unicode="&#x2019;" horiz-adv-x="471" d="M83 926v179q87 0 94 96h-94v282h287v-238q0 -72 -18.5 -130.5t-54.5 -100.5t-89.5 -65t-124.5 -23z" />
<glyph unicode="&#x201a;" horiz-adv-x="637" d="M164 0v299h304v-255q0 -78 -20 -141t-58.5 -107.5t-95 -68.5t-130.5 -24v187q47 0 72 28.5t30 81.5h-102z" />
<glyph unicode="&#x201c;" horiz-adv-x="706" d="M38 949v239q0 72 18.5 131t54.5 100.5t89.5 64.5t124.5 23v-180q-45 0 -68.5 -22.5t-27.5 -72.5h96v-283h-287zM382 949v239q0 72 18.5 131t54.5 100.5t89.5 64.5t124.5 23v-180q-44 0 -67.5 -22.5t-26.5 -72.5h94v-283h-287z" />
<glyph unicode="&#x201d;" horiz-adv-x="706" d="M38 926v179q88 0 95 96h-95v282h287v-238q0 -73 -18.5 -132t-54.5 -100.5t-89.5 -64t-124.5 -22.5zM382 926v179q90 0 96 96h-96v282h287v-238q0 -73 -18.5 -132t-54.5 -100.5t-89.5 -64t-124.5 -22.5z" />
<glyph unicode="&#x201e;" horiz-adv-x="898" d="M101 0v299h303v-255q0 -78 -20 -141t-58 -107.5t-95 -68.5t-130 -24v187q48 0 73 28.5t29 81.5h-102zM488 0v299h303v-255q0 -78 -19 -141t-57 -107.5t-95 -68.5t-132 -24v187q95 0 103 110h-103z" />
<glyph unicode="&#x2022;" horiz-adv-x="919" d="M110 870q0 67 26 127t71 105t105 71.5t129 26.5t129 -26.5t104.5 -71.5t70 -105t25.5 -127q0 -68 -27 -128.5t-73 -105.5t-105.5 -71.5t-123.5 -26.5q-69 0 -129 26.5t-105 71.5t-71 105.5t-26 128.5z" />
<glyph unicode="&#x2026;" horiz-adv-x="1199" d="M65 0v282h286v-282h-286zM432 0v282h286v-282h-286zM799 0v282h286v-282h-286z" />
<glyph unicode="&#x202f;" horiz-adv-x="394" />
<glyph unicode="&#x2039;" horiz-adv-x="765" d="M51 589l359 515h255l-293 -516l293 -514h-255z" />
<glyph unicode="&#x203a;" horiz-adv-x="765" d="M68 74l295 515l-295 515h253l359 -515l-359 -515h-253z" />
<glyph unicode="&#x205f;" horiz-adv-x="493" />
<glyph unicode="&#x20ac;" horiz-adv-x="1179" d="M20 499v190h88q-1 11 -1 24v27v25t1 22h-88v191h102q70 529 485 529q103 0 186.5 -35.5t146 -103t102.5 -166.5t55 -226h-278q-7 70 -24.5 126t-44.5 95t-63.5 60t-79.5 21q-162 0 -207 -300h296l-51 -191h-260v-47v-51h227l-54 -190h-158q45 -293 207 -293 q180 0 212 326h277q-51 -556 -489 -556q-412 0 -484 523h-103z" />
<glyph unicode="&#x2122;" horiz-adv-x="1449" d="M30 1281v202h589v-202h-185v-566h-219v566h-185zM666 715v768h241l130 -378l131 378h239v-768h-210v313l-104 -313h-112l-105 314v-314h-210z" />
<glyph unicode="&#x25fc;" horiz-adv-x="1100" d="M0 0v1100h1100v-1100h-1100z" />
</font>
</defs>
</svg>
