<?xml version="1.0" standalone="no"?>
<!DOCTYPE svg PUBLIC "-//W3C//DTD SVG 1.1//EN" "http://www.w3.org/Graphics/SVG/1.1/DTD/svg11.dtd" >
<svg xmlns="http://www.w3.org/2000/svg">
<metadata></metadata>
<defs>
<font id="kartikaregular" horiz-adv-x="1181" >
<font-face units-per-em="2048" ascent="1638" descent="-410" />
<missing-glyph horiz-adv-x="1520" />
<glyph horiz-adv-x="0" />
<glyph unicode="&#xd;" horiz-adv-x="1321" d="M0 0z" />
<glyph unicode=" " horiz-adv-x="1520" d="M0 0z" />
<glyph unicode="!" horiz-adv-x="589" d="M189 0v212h213v-212h-213zM229 379v1138h173v-1138h-173z" />
<glyph unicode="&#x22;" horiz-adv-x="754" d="M87 1517h212v-246l-46 -291h-114zM450 1517h215v-246l-49 -291h-114z" />
<glyph unicode="#" d="M24 416v153h205l77 376h-197v155h228l86 417h156l-86 -417h332l86 417h156l-85 -417h173v-155h-204l-76 -376h197v-153h-230l-84 -416h-157l85 416h-331l-85 -416h-157l84 416h-173zM386 569h330l76 376h-330z" />
<glyph unicode="$" d="M80 429h203q22 -259 250 -297v579q-420 83 -420 409q0 93 29.5 168t83.5 129t132 86.5t175 40.5v159h110v-159q368 -28 407 -374h-205q-16 190 -202 219v-524q129 -26 214 -63t136 -89t71 -120t20 -155q0 -91 -30 -172.5t-87.5 -143.5t-139 -101.5t-184.5 -44.5v-160 h-110v158q-423 46 -453 455zM315 1135q0 -57 15 -97.5t42.5 -70t68.5 -48t92 -31.5v502q-218 -42 -218 -255zM643 132q241 30 241 293q0 53 -10 93t-36.5 70.5t-74 54t-120.5 43.5v-554z" />
<glyph unicode="%" horiz-adv-x="1886" d="M133 1141q0 92 25 166t71 127t108.5 81.5t140.5 28.5q75 0 139 -27.5t109.5 -80t71.5 -126.5t26 -169q0 -96 -26 -171t-71.5 -126.5t-109.5 -78.5t-139 -27q-78 0 -140.5 28.5t-108.5 80.5t-71 126.5t-25 167.5zM299 1141q0 -276 179 -276q180 0 180 276t-180 276 q-179 0 -179 -276zM450 0l831 1517h152l-830 -1517h-153zM1062 379q0 91 25.5 165t70.5 127t107.5 81.5t140.5 28.5q77 0 140.5 -28.5t109.5 -81.5t71.5 -127t25.5 -165q0 -93 -25.5 -167.5t-71.5 -127.5t-109.5 -81.5t-140.5 -28.5q-76 0 -139.5 28t-108.5 81t-70.5 127.5 t-25.5 168.5zM1228 379q0 -277 178 -277q181 0 181 277q0 276 -181 276q-178 0 -178 -276z" />
<glyph unicode="&#x26;" horiz-adv-x="1414" d="M90 418q0 71 21.5 131t65 114.5t110 104.5t155.5 101q-159 206 -159 336q0 73 28 135.5t78 107.5t119.5 70.5t150.5 25.5q77 0 141.5 -26.5t111 -70.5t73 -102.5t26.5 -124.5q0 -60 -18 -111t-54.5 -96t-92 -87t-131.5 -87l305 -380q24 56 36 119t16 137h201 q-7 -124 -36.5 -225t-83.5 -195l154 -193l-152 -128l-131 166q-179 -166 -451 -166q-104 0 -192.5 35t-153 95t-101 141t-36.5 173zM295 430q0 -58 21 -110.5t58.5 -92.5t88 -63.5t110.5 -23.5q209 0 341 140l-369 464q-65 -38 -111 -72t-77.5 -71.5t-46.5 -79t-15 -91.5z M473 1226q0 -81 93 -204l50 -61q110 60 158 118t48 138q0 40 -15 72t-39 55t-55.5 35t-63.5 12q-37 0 -68.5 -12t-56 -33.5t-38 -52t-13.5 -67.5z" />
<glyph unicode="'" horiz-adv-x="405" d="M96 1271v246h211v-246l-45 -291h-116z" />
<glyph unicode="(" horiz-adv-x="708" d="M129 549q0 516 367 995h133q-309 -497 -309 -995t309 -995h-133q-367 483 -367 995z" />
<glyph unicode=")" horiz-adv-x="708" d="M77 -446q309 495 309 995q0 499 -309 995h133q369 -476 369 -995q0 -513 -369 -995h-133z" />
<glyph unicode="*" horiz-adv-x="825" d="M67 1238l50 151l240 -105l-24 260h157l-22 -260l240 105l47 -151l-253 -55l170 -198l-127 -94l-133 227l-135 -227l-127 94l172 198z" />
<glyph unicode="+" horiz-adv-x="1238" d="M117 662v173h416v416h175v-416h415v-173h-415v-415h-175v415h-416z" />
<glyph unicode="," horiz-adv-x="589" d="M189 0v212h213v-212q0 -66 -13.5 -121t-40 -94.5t-66.5 -61.5t-93 -22v99q106 0 106 200h-106z" />
<glyph unicode="-" horiz-adv-x="708" d="M67 456v187h571v-187h-571z" />
<glyph unicode="." horiz-adv-x="589" d="M189 0v212h213v-212h-213z" />
<glyph unicode="/" horiz-adv-x="589" d="M0 0l439 1517h150l-439 -1517h-150z" />
<glyph unicode="0" d="M96 758q0 786 493 786q495 0 495 -786q0 -784 -495 -784q-493 0 -493 784zM297 758q0 -179 19 -300t56 -193.5t91.5 -104t125.5 -31.5q72 0 127 32.5t92 107t56.5 194.5t19.5 295q0 176 -19.5 296.5t-56.5 196t-92 108t-127 32.5q-71 0 -125.5 -32t-91.5 -105.5t-56 -195 t-19 -300.5z" />
<glyph unicode="1" d="M235 1115v153q358 0 411 276h151v-1544h-196v1195q-115 -80 -366 -80z" />
<glyph unicode="2" d="M66 0q0 140 86 265q42 64 120 140.5t193 170.5q118 95 195.5 167t120.5 129q84 109 84 251q0 125 -70.5 196.5t-205.5 71.5q-120 0 -197 -72.5t-87 -213.5h-203q8 102 46.5 183.5t102.5 138t151 87t191 30.5q116 0 205 -32.5t148 -90.5t90 -135.5t31 -167.5 q0 -86 -22.5 -158t-67.5 -136q-49 -65 -139 -151.5t-225 -200.5q-274 -230 -276 -290h735v-182h-1006z" />
<glyph unicode="3" d="M94 402h201q0 -57 19 -106.5t56.5 -86.5t91.5 -58.5t126 -21.5q67 0 122 22.5t94.5 64t61 99t21.5 127.5q0 147 -83 223t-248 76h-74v151h44q285 0 285 262q0 116 -61 176.5t-177 60.5q-233 0 -258 -241h-202q11 98 50.5 172t99.5 123t138 74t168 25q100 0 181.5 -29 t139.5 -81.5t89.5 -124.5t31.5 -159q0 -100 -51.5 -184t-158.5 -132q66 -17 118.5 -53t90 -86t58 -113t20.5 -134q0 -106 -38.5 -193.5t-106.5 -149.5t-159.5 -96.5t-195.5 -34.5q-106 0 -194.5 31t-154 86.5t-103 134.5t-42.5 176z" />
<glyph unicode="4" d="M33 363v172l691 1002h153v-1002h206v-172h-206v-363h-196v363h-648zM214 535h467v695z" />
<glyph unicode="5" d="M89 398h203q18 -139 94 -204t192 -65q70 0 128 28.5t99.5 78.5t64 117t22.5 145t-22.5 142.5t-65 109t-101 68.5t-130.5 24q-163 0 -276 -126h-153l65 801h813v-179h-647l-33 -421q113 91 281 91q92 0 177 -34t151 -98t105 -155.5t39 -204.5q0 -116 -37 -215t-105 -171.5 t-163.5 -114t-211.5 -41.5q-96 0 -180.5 26.5t-149.5 79.5t-106.5 132.5t-52.5 185.5z" />
<glyph unicode="6" d="M96 711q0 833 536 833q84 0 158 -22.5t130.5 -70t94 -119t50.5 -167.5h-200q-30 226 -243 226q-142 0 -227 -144t-100 -428q148 166 343 166q93 0 176 -37t145 -103t98 -156t36 -196q0 -104 -34 -197.5t-96 -165t-150 -114t-197 -42.5q-123 0 -220 48t-163.5 141 t-101.5 230.5t-35 317.5zM292 668q4 -263 87 -401t233 -138q63 0 114.5 27t87 75t55 112.5t19.5 138.5q0 77 -20 141.5t-56.5 111t-89.5 72t-117 25.5q-162 0 -313 -164z" />
<glyph unicode="7" d="M102 1338v179h982v-136l-551 -1381h-218l564 1338h-777z" />
<glyph unicode="8" d="M89 403q0 249 316 395q-256 149 -256 372q0 81 31.5 150t89 119t139 77.5t180.5 27.5t180.5 -27.5t139.5 -77.5t90 -119t32 -150q0 -223 -256 -372q318 -146 318 -395q0 -94 -36.5 -172.5t-103 -135t-159 -89t-205.5 -32.5q-111 0 -202.5 31t-158 87.5t-103 135 t-36.5 175.5zM292 403q0 -64 21.5 -115t60.5 -86.5t93.5 -54t121.5 -18.5q66 0 121 17.5t94.5 53t61.5 86t22 117.5q0 99 -71 169.5t-228 139.5q-81 -37 -137.5 -72t-92.5 -71.5t-51.5 -77.5t-15.5 -88zM350 1170q0 -185 239 -292q242 107 242 292q0 104 -63 162.5 t-179 58.5t-177.5 -58.5t-61.5 -162.5z" />
<glyph unicode="9" d="M89 1024q0 104 32.5 198.5t94 166t149.5 113.5t198 42q251 0 386 -186.5t135 -549.5q0 -834 -536 -834q-85 0 -158.5 23.5t-130.5 71t-94.5 118t-48.5 165.5h200q23 -223 243 -223q142 0 227 143.5t101 428.5q-151 -166 -346 -166q-98 0 -180 37t-143 102t-95 154.5 t-34 195.5zM292 1038q0 -76 19 -139.5t55 -110t88 -73t119 -26.5q165 0 315 162q-6 269 -89.5 404.5t-229.5 135.5q-64 0 -115 -27t-87.5 -75t-55.5 -112t-19 -139z" />
<glyph unicode=":" horiz-adv-x="589" d="M189 0v212h213v-212h-213zM189 887v213h213v-213h-213z" />
<glyph unicode=";" horiz-adv-x="589" d="M189 0v212h213v-212q0 -66 -13.5 -121t-40 -94.5t-66.5 -61.5t-93 -22v99q106 0 106 200h-106zM189 887v213h213v-213h-213z" />
<glyph unicode="&#x3c;" horiz-adv-x="1238" d="M117 662v173l1006 428v-186l-798 -328l798 -329v-185z" />
<glyph unicode="=" horiz-adv-x="1238" d="M117 430v175h1006v-175h-1006zM117 892v175h1006v-175h-1006z" />
<glyph unicode="&#x3e;" horiz-adv-x="1238" d="M117 235v185l797 329l-797 328v186l1006 -428v-173z" />
<glyph unicode="?" d="M99 1105q7 99 45.5 180t103 138.5t151.5 89t190 31.5q112 0 202 -31.5t153.5 -86.5t98 -130.5t34.5 -164.5q0 -53 -10 -98.5t-35 -90t-68 -91t-107 -102.5q-65 -55 -102 -91.5t-55.5 -74t-23 -85.5t-4.5 -125h-182q0 96 9 158t31 111t62 94.5t103 107.5q44 43 79 73 q34 30 57 58.5t34.5 61.5t11.5 81q0 59 -21.5 109t-59.5 86.5t-90 57t-114 20.5q-247 0 -293 -286h-200zM482 0v212h212v-212h-212z" />
<glyph unicode="@" horiz-adv-x="2155" d="M119 485q0 455 290 761q293 301 735 301q203 0 367 -61.5t279.5 -170t178 -256.5t62.5 -321q0 -175 -47.5 -312t-130.5 -232t-198 -145t-249 -50q-90 0 -141.5 47.5t-57.5 125.5q-122 -173 -319 -173q-81 0 -150 30t-119 85t-78 133.5t-28 175.5q0 136 47.5 262t124 223 t172 156t194.5 59q223 0 326 -133l24 103h185l-160 -695q-15 -58 -20.5 -100t-5.5 -75q0 -73 56 -73q87 0 164 41.5t134.5 119t90.5 186.5t33 247q0 141 -54 261t-150.5 209t-232 139t-300.5 50q-191 0 -351.5 -73t-275.5 -198t-178.5 -292.5t-63.5 -354.5 q0 -188 60.5 -333.5t175.5 -246.5t280.5 -153t375.5 -52q263 0 436 80l76 -127q-226 -99 -511 -99q-244 0 -438 64.5t-329 185t-207 293t-72 388.5zM704 429q0 -279 221 -279q55 0 107.5 24.5t97.5 68t79.5 105t51.5 137.5l80 354q-85 129 -276 129q-71 0 -136 -48 t-115 -124.5t-80 -173t-30 -193.5z" />
<glyph unicode="A" horiz-adv-x="1414" d="M-1 0l583 1517h216l619 -1517h-226l-176 462h-636l-169 -462h-211zM432 622h523l-266 704z" />
<glyph unicode="B" horiz-adv-x="1414" d="M172 0v1517h539q123 0 219.5 -27t163 -77t101.5 -121.5t35 -160.5q0 -220 -219 -324q74 -19 130 -55.5t92.5 -85t54.5 -106.5t18 -120q0 -218 -142.5 -329t-425.5 -111h-566zM370 182h366q361 0 361 258q0 68 -20 117t-65 81.5t-119 48t-182 15.5h-341v-520zM370 884h339 q169 0 246 52t77 178q0 54 -17 96.5t-56.5 71t-105 42.5t-164.5 14h-319v-454z" />
<glyph unicode="C" horiz-adv-x="1533" d="M99 759q0 181 50 326t142 247t223 157t293 55q122 0 230 -35t190.5 -98.5t134 -153t62.5 -197.5h-207q-9 70 -41 128t-84 98.5t-124.5 62.5t-159.5 22q-117 0 -210 -41.5t-157.5 -119t-99 -191.5t-34.5 -260q0 -148 35.5 -262t99.5 -192.5t155.5 -118.5t206.5 -40 q188 0 292.5 88t120.5 248h207q-11 -123 -62 -218t-133 -159.5t-190 -97.5t-232 -33q-162 0 -293 55t-223 157.5t-142 247.5t-50 325z" />
<glyph unicode="D" horiz-adv-x="1533" d="M172 0v1517h479q775 0 775 -749q0 -768 -775 -768h-479zM370 182h276q172 0 283 40.5t175 116.5t89 184.5t25 244.5q0 133 -25.5 238t-90 179.5t-175 113.5t-281.5 39h-276v-1156z" />
<glyph unicode="E" horiz-adv-x="1414" d="M172 0v1517h1096v-179h-898v-463h838v-181h-838v-512h933v-182h-1131z" />
<glyph unicode="F" horiz-adv-x="1296" d="M172 0v1517h1023v-179h-825v-470h714v-179h-714v-689h-198z" />
<glyph unicode="G" horiz-adv-x="1652" d="M99 759q0 175 51.5 319.5t147 248t229.5 160.5t300 57q135 0 251.5 -34t204 -98t141 -153t63.5 -199h-207q-14 143 -128.5 227t-320.5 84q-117 0 -213.5 -40.5t-165.5 -118.5t-107 -191.5t-38 -261.5q0 -143 37.5 -256.5t106 -193t166 -121.5t215.5 -42q329 0 488 217 v230h-401v182h595v-775h-143l-51 160q-155 -186 -486 -186q-163 0 -299 57.5t-232.5 160.5t-150 247t-53.5 320z" />
<glyph unicode="H" horiz-adv-x="1533" d="M172 0v1517h198v-620h791v620h200v-1517h-200v715h-791v-715h-198z" />
<glyph unicode="I" horiz-adv-x="589" d="M194 0v1517h204v-1517h-204z" />
<glyph unicode="J" horiz-adv-x="1061" d="M56 393v39h204q0 -276 205 -276q53 0 95 12t70.5 47t43.5 97.5t15 162.5v1042h202v-1032q0 -138 -27 -235t-81 -158.5t-134 -89.5t-184 -28q-93 0 -169 31t-129.5 86t-82 132t-28.5 170z" />
<glyph unicode="K" horiz-adv-x="1414" d="M172 0v1517h198v-751l741 751h272l-637 -620l665 -897h-264l-541 758l-236 -232v-526h-198z" />
<glyph unicode="L" d="M172 0v1517h198v-1335h740v-182h-938z" />
<glyph unicode="M" horiz-adv-x="1766" d="M172 0v1517h298l414 -1264l412 1264h303v-1517h-193v1291l-432 -1291h-182l-432 1291v-1291h-188z" />
<glyph unicode="N" horiz-adv-x="1533" d="M172 0v1517h203l796 -1197v1197h190v-1517h-206l-795 1198v-1198h-188z" />
<glyph unicode="O" horiz-adv-x="1652" d="M99 759q0 173 52.5 317.5t148.5 248.5t230 161.5t297 57.5q160 0 293 -55.5t229.5 -158.5t150 -248t53.5 -323t-54.5 -323.5t-151 -247.5t-229.5 -158t-291 -56q-159 0 -293 57.5t-230.5 160.5t-150.5 247t-54 320zM307 759q0 -143 39 -256.5t107.5 -193t163.5 -121.5 t208 -42q116 0 212 43t164.5 123t106.5 193t38 254q0 143 -38 257t-106.5 192.5t-163 120.5t-207.5 42q-116 0 -212 -41.5t-165 -119t-108 -191.5t-39 -260z" />
<glyph unicode="P" horiz-adv-x="1414" d="M172 0v1517h635q100 0 193.5 -20.5t165 -71.5t114.5 -136t43 -214q0 -233 -143 -351t-426 -118h-384v-606h-198zM370 788h385q99 0 167 18.5t110.5 53.5t62 88t19.5 122q0 78 -26.5 130.5t-73 83t-109.5 42.5t-134 12h-401v-550z" />
<glyph unicode="Q" horiz-adv-x="1652" d="M99 759q0 173 52.5 317.5t148.5 248.5t230 161.5t297 57.5q160 0 293 -55.5t229.5 -158.5t150 -248t53.5 -323q0 -339 -196 -565l222 -173l-119 -143l-252 199q-170 -103 -381 -103q-159 0 -293 57.5t-230.5 160.5t-150.5 247t-54 320zM307 759q0 -143 39 -256.5 t107.5 -193t163.5 -121.5t208 -42q126 0 229 51l-152 119l120 143l183 -144q141 164 141 444q0 143 -38 257t-106.5 192.5t-163 120.5t-207.5 42q-116 0 -212 -41.5t-165 -119t-108 -191.5t-39 -260z" />
<glyph unicode="R" horiz-adv-x="1533" d="M172 0v1517h670q122 0 222 -21.5t171 -70.5t109.5 -130.5t38.5 -201.5q0 -82 -24.5 -148.5t-69.5 -117.5t-108 -86t-139 -52q159 -51 242 -276l152 -413h-218l-143 405q-20 53 -52.5 98t-75.5 77.5t-94.5 50.5t-108.5 18h-374v-649h-198zM370 831h449q92 0 159 13 t111 43.5t65 80.5t21 125q0 258 -324 258h-481v-520z" />
<glyph unicode="S" horiz-adv-x="1414" d="M96 489h193q7 -86 43.5 -149t96 -103.5t138 -60.5t168.5 -20q82 0 151 17t118.5 50t77.5 81t28 109q0 63 -25 106.5t-81 76.5t-147 59t-222 54q-133 27 -226 65t-151 88t-83.5 114.5t-25.5 146.5q0 91 38 169t108.5 133.5t170.5 87t223 31.5q126 0 232 -30.5t181.5 -88.5 t119.5 -143t46 -194h-196q-28 278 -374 278q-173 0 -264 -64t-91 -167q0 -48 15 -82.5t54.5 -61t107.5 -48.5t174 -45q104 -24 183.5 -45.5t139.5 -41.5q55 -20 106.5 -53t92.5 -80t65.5 -109.5t24.5 -139.5q0 -99 -41.5 -182t-116 -143.5t-178 -95t-226.5 -34.5 q-163 0 -284 38.5t-201 107.5t-120 163.5t-43 205.5z" />
<glyph unicode="T" horiz-adv-x="1296" d="M46 1338v179h1204v-179h-504v-1338h-201v1338h-499z" />
<glyph unicode="U" horiz-adv-x="1533" d="M172 639v878h198v-874q0 -151 26 -246t76 -149t123.5 -73t170.5 -19q96 0 170 20t124 73.5t75.5 148.5t25.5 245v874h200v-878q0 -157 -27 -280t-94 -209t-182.5 -131t-291.5 -45q-135 0 -231.5 26.5t-162.5 72.5t-105.5 109t-61 137t-27.5 155.5t-6 164.5z" />
<glyph unicode="V" horiz-adv-x="1414" d="M13 1517h214l481 -1300l477 1300h216l-590 -1517h-208z" />
<glyph unicode="W" horiz-adv-x="2003" d="M24 1517h213l304 -1234l343 1234h239l343 -1234l303 1234h213l-422 -1517h-191l-365 1320l-366 -1320h-192z" />
<glyph unicode="X" horiz-adv-x="1414" d="M10 0l583 801l-526 716h248l393 -560l395 560h244l-528 -716l585 -801h-246l-449 643l-453 -643h-246z" />
<glyph unicode="Y" horiz-adv-x="1414" d="M10 1517h245l454 -698l452 698h243l-596 -874v-643h-202v643z" />
<glyph unicode="Z" horiz-adv-x="1296" d="M37 0v189l945 1149h-858v179h1090v-187l-944 -1148h968v-182h-1201z" />
<glyph unicode="[" horiz-adv-x="589" d="M144 -423v1940h412v-151h-216v-1632h216v-157h-412z" />
<glyph unicode="\" horiz-adv-x="589" d="M0 1517h150l439 -1517h-150z" />
<glyph unicode="]" horiz-adv-x="589" d="M34 -266h218v1632h-218v151h412v-1940h-412v157z" />
<glyph unicode="^" horiz-adv-x="997" d="M77 879l346 638h148l346 -638h-192l-229 451l-230 -451h-189z" />
<glyph unicode="_" horiz-adv-x="1171" d="M-13 -229h1197v-104h-1197v104z" />
<glyph unicode="`" horiz-adv-x="708" d="M89 1544h244l137 -291h-153z" />
<glyph unicode="a" d="M80 292q0 386 665 386h96q0 76 -6.5 131.5t-32.5 92t-78.5 53.5t-145.5 17q-262 0 -271 -187h-194q24 338 475 338q104 0 187 -17.5t141 -63t88 -125.5t30 -206v-711h-193v113q-147 -139 -385 -139q-81 0 -150 23t-119.5 64.5t-78.5 100t-28 130.5zM283 300 q0 -86 61 -128.5t169 -42.5q48 0 94.5 10.5t89 31.5t80 50t64.5 68v244h-133q-425 0 -425 -233z" />
<glyph unicode="b" d="M144 0v1517h196v-549q129 155 315 155q107 0 190.5 -40.5t141.5 -114t88 -177t30 -232.5q0 -134 -35 -242t-97 -184.5t-148 -117.5t-186 -41q-179 0 -299 112v-86h-196zM340 262q125 -133 288 -133q130 0 202 105.5t72 324.5q0 209 -68 311t-198 102q-161 0 -296 -190 v-520z" />
<glyph unicode="c" horiz-adv-x="1061" d="M76 549q0 140 37 247.5t105 179.5t162.5 109.5t208.5 37.5q95 0 172 -24.5t134 -70.5t92 -111.5t45 -147.5h-200q-3 49 -23.5 87t-53.5 63.5t-76 39t-90 13.5q-70 0 -128 -27.5t-99.5 -81.5t-64 -133t-22.5 -181q0 -209 83.5 -314.5t230.5 -105.5q47 0 90 11.5t76 35.5 t53.5 62t23.5 91h200q-10 -87 -47.5 -153t-96.5 -111t-135.5 -68t-163.5 -23q-114 0 -208.5 37.5t-162.5 110t-105 180t-37 247.5z" />
<glyph unicode="d" d="M76 541q0 134 34 242t96.5 183.5t147 116t185.5 40.5q179 0 302 -108v502h193v-1517h-193v132q-132 -158 -315 -158q-106 0 -189.5 39.5t-141.5 112.5t-88.5 178t-30.5 237zM275 541q0 -209 71.5 -310.5t196.5 -101.5q162 0 298 187v523q-129 133 -290 133 q-125 0 -200.5 -107t-75.5 -324z" />
<glyph unicode="e" d="M76 549q0 136 38 242.5t105.5 180t162 112.5t207.5 39q117 0 213 -39t163 -112.5t103.5 -180t36.5 -242.5v-47h-828q8 -97 35.5 -168t72 -116.5t102.5 -67t125 -21.5q49 0 96.5 12.5t85.5 37.5t62.5 62.5t27.5 87.5h200q-12 -87 -52.5 -153t-103.5 -111t-143.5 -68 t-172.5 -23q-120 0 -218.5 38.5t-169.5 111.5t-109.5 180.5t-38.5 244.5zM283 656h616q-24 161 -104 238.5t-206 77.5q-57 0 -108 -18.5t-91 -57.5t-67.5 -98.5t-39.5 -141.5z" />
<glyph unicode="f" horiz-adv-x="589" d="M17 945v155h162v95q0 349 306 349q50 0 87 -2t60 -9v-172q-29 8 -58 9t-61 1q-73 0 -106.5 -38.5t-33.5 -137.5v-95h209v-155h-209v-945h-194v945h-162z" />
<glyph unicode="g" d="M76 541q0 134 34 242t96.5 183.5t147 116t185.5 40.5q179 0 302 -108v85h193v-1014q0 -532 -478 -532q-103 0 -186 23.5t-140.5 67t-89 105t-31.5 137.5h204q0 -182 242 -182q64 0 117 16t90 56.5t58 113t21 186.5v55q-132 -158 -315 -158q-106 0 -189.5 39.5 t-141.5 112.5t-88.5 178t-30.5 237zM275 541q0 -209 71.5 -310.5t196.5 -101.5q162 0 298 187v523q-129 133 -290 133q-125 0 -200.5 -107t-75.5 -324z" />
<glyph unicode="h" d="M144 0v1517h196v-559q73 86 154.5 125.5t173.5 39.5q373 0 373 -402v-721h-197v711q0 134 -47.5 193.5t-158.5 59.5q-150 0 -298 -176v-788h-196z" />
<glyph unicode="i" horiz-adv-x="483" d="M144 0v1100h196v-1100h-196zM144 1307v210h196v-210h-196z" />
<glyph unicode="j" horiz-adv-x="483" d="M-76 -266q57 -17 110 -17q32 0 52.5 10t33.5 35.5t18.5 69.5t5.5 112v1156h196v-1159q0 -123 -20 -198t-57.5 -117t-90 -56.5t-116.5 -14.5q-80 0 -132 13v166zM144 1307v210h196v-210h-196z" />
<glyph unicode="k" horiz-adv-x="1061" d="M144 0v1517h196v-859l424 442h246l-417 -411l459 -689h-233l-357 559l-122 -121v-438h-196z" />
<glyph unicode="l" horiz-adv-x="483" d="M144 0v1517h196v-1517h-196z" />
<glyph unicode="m" horiz-adv-x="1766" d="M144 0v1100h196v-142q133 165 306 165q242 0 309 -198q57 67 103 106.5t85.5 59.5t75 26t72.5 6q339 0 339 -402v-721h-196v711q0 68 -9 117t-29 79t-53 43.5t-80 13.5q-143 0 -278 -176v-788h-196v711q0 136 -39 194.5t-134 58.5q-143 0 -276 -176v-788h-196z" />
<glyph unicode="n" d="M144 0v1100h196v-142q73 86 154.5 125.5t173.5 39.5q373 0 373 -402v-721h-197v711q0 134 -47.5 193.5t-158.5 59.5q-150 0 -298 -176v-788h-196z" />
<glyph unicode="o" d="M76 549q0 140 37 247.5t105 179.5t162.5 109.5t208.5 37.5q117 0 213 -39t163 -112.5t103.5 -180t36.5 -242.5q0 -140 -37.5 -247.5t-105.5 -180t-163 -110t-210 -37.5q-114 0 -208.5 37.5t-162.5 110t-105 180t-37 247.5zM275 549q0 -209 83.5 -314.5t230.5 -105.5 q146 0 229.5 105t83.5 315q0 106 -22.5 185.5t-64 132t-99.5 79t-127 26.5q-70 0 -128 -27.5t-99.5 -81.5t-64 -133t-22.5 -181z" />
<glyph unicode="p" d="M144 -423v1523h196v-132q129 155 315 155q107 0 190.5 -40.5t141.5 -114t88 -177t30 -232.5q0 -134 -35 -242t-97 -184.5t-148 -117.5t-186 -41q-179 0 -299 112v-509h-196zM340 262q125 -133 288 -133q130 0 202 105.5t72 324.5q0 209 -68 311t-198 102 q-161 0 -296 -190v-520z" />
<glyph unicode="q" d="M76 541q0 134 34 242t96.5 183.5t147 116t185.5 40.5q179 0 302 -108v85h193v-1523h-193v555q-132 -158 -315 -158q-106 0 -189.5 39.5t-141.5 112.5t-88.5 178t-30.5 237zM275 541q0 -209 71.5 -310.5t196.5 -101.5q162 0 298 187v523q-129 133 -290 133 q-125 0 -200.5 -107t-75.5 -324z" />
<glyph unicode="r" horiz-adv-x="708" d="M144 0v1100h196v-155q118 178 286 178q22 0 43.5 -1.5t45.5 -6.5v-194q-47 13 -120 13q-146 0 -255 -156v-778h-196z" />
<glyph unicode="s" horiz-adv-x="1061" d="M66 329h196q3 -200 273 -200q126 0 186.5 47t60.5 129q0 35 -12 59t-46.5 43t-97.5 37.5t-163 44.5q-98 23 -168 47.5t-116 59.5t-67.5 85.5t-21.5 126.5q0 69 28.5 126t82.5 99t130.5 66t170.5 24q429 0 440 -308h-196q-8 157 -233 157q-45 0 -86.5 -9t-73 -27 t-49.5 -46t-18 -65q0 -33 6.5 -53.5t35.5 -38t89.5 -34.5t167.5 -43q99 -24 172.5 -49.5t122.5 -62t73.5 -90.5t24.5 -132q0 -73 -30.5 -136t-88 -110t-139 -74.5t-184.5 -27.5q-450 0 -470 355z" />
<glyph unicode="t" horiz-adv-x="589" d="M36 945v155h136v271h194v-271h179v-155h-179v-632q0 -57 7 -91.5t21.5 -53t34 -24t44.5 -5.5q26 0 49.5 1.5t48.5 5.5v-147q-33 -8 -67.5 -10.5t-73.5 -2.5q-93 0 -144 22.5t-77 66.5t-31.5 106t-5.5 141v623h-136z" />
<glyph unicode="u" d="M140 380v720h196v-712q0 -135 47 -193.5t158 -58.5q161 0 300 177v787h193v-1100h-193v140q-146 -166 -328 -166q-373 0 -373 406z" />
<glyph unicode="v" horiz-adv-x="1061" d="M29 1100h211l291 -860l291 860h210l-416 -1100h-174z" />
<glyph unicode="w" horiz-adv-x="1533" d="M10 1100h217l202 -838l249 838h176l250 -838l202 838h216l-331 -1100h-187l-238 808l-238 -808h-186z" />
<glyph unicode="x" horiz-adv-x="1061" d="M14 0l406 571l-374 529h243l242 -385l240 385h244l-376 -527l406 -573h-241l-273 429l-275 -429h-242z" />
<glyph unicode="y" horiz-adv-x="1061" d="M29 1100h211l291 -860l291 860h210l-416 -1100q-43 -113 -80.5 -196.5t-80 -139.5t-94 -83t-121.5 -27q-38 0 -69 4t-58 12v178q49 -13 93 -13q146 0 236 265z" />
<glyph unicode="z" horiz-adv-x="1061" d="M43 0v166l683 768h-643v166h899v-166l-685 -768h720v-166h-974z" />
<glyph unicode="{" horiz-adv-x="709" d="M59 465v170q71 0 113 25t64.5 70.5t29 108t7.5 141.5q0 71 1 154.5t11 171.5q14 74 42 120.5t68 73t91.5 35.5t114.5 9h57v-161h-32q-110 0 -133 -57q-13 -29 -18 -105t-5 -201q0 -112 -14 -192t-44 -135t-75 -89.5t-105 -54.5q57 -17 102 -50t75 -88t45.5 -136.5 t15.5 -194.5q0 -252 23 -307q23 -58 133 -58h32v-161h-57q-68 0 -127 11.5t-103.5 51.5t-70 117t-25.5 209v150q0 74 -6 140.5t-28 116.5t-65 81t-117 34z" />
<glyph unicode="|" horiz-adv-x="551" d="M194 -446v1963h163v-1963h-163z" />
<glyph unicode="}" horiz-adv-x="709" d="M51 -285h32q106 0 131 58q13 30 19.5 103.5t6.5 203.5q0 112 14.5 192t43 135t73.5 88.5t107 53.5q-62 20 -107 53.5t-73.5 89.5t-43 136t-14.5 192q0 130 -6.5 203.5t-19.5 102.5q-14 28 -42.5 42.5t-88.5 14.5h-32v161h58q84 0 145.5 -17.5t101 -62.5t58.5 -121 t19 -192v-71q-1 -35 -1 -69q0 -77 5.5 -145t28 -119.5t66 -81.5t117.5 -30v-170q-74 -2 -116.5 -28.5t-63 -72t-25.5 -108t-5 -136.5t-1.5 -157t-14.5 -169q-8 -69 -34 -115.5t-66.5 -74t-95 -39t-118.5 -11.5h-58v161z" />
<glyph unicode="~" horiz-adv-x="1238" d="M90 1181v212q109 124 289 124q113 0 267 -68q159 -69 238 -69q134 0 266 142v-214q-110 -124 -285 -124q-113 0 -272 69q-160 70 -234 70q-130 0 -269 -142z" />
<glyph unicode="&#xa0;" horiz-adv-x="1061" d="M0 0z" />
<glyph unicode="&#xa1;" horiz-adv-x="589" d="M189 887v213h213v-213h-213zM206 -420v1139h173v-1139h-173z" />
<glyph unicode="&#xa2;" d="M117 549q0 136 36.5 242.5t104 180t162.5 112.5t212 39q23 0 43.5 -1t40.5 -4l66 240l109 -30l-66 -235q223 -85 250 -324h-200q-1 109 -94 165l-220 -798q18 -4 34.5 -5.5t36.5 -1.5q47 0 90 12t76 37t53.5 62t23.5 89h200q-11 -86 -48 -152.5t-96 -111.5t-134.5 -68 t-164.5 -23q-29 0 -56 3t-58 9l-68 -246l-108 31l67 246q-292 133 -292 532zM317 549q0 -264 139 -365l219 784q-20 4 -43 4q-70 0 -128 -26.5t-99.5 -80t-64.5 -132.5t-23 -184z" />
<glyph unicode="&#xa3;" d="M51 -26v188q52 27 92.5 62t68.5 82t43 108.5t15 141.5q0 66 -17 130h-202v153h159q-28 90 -40.5 157.5t-12.5 114.5q0 100 34.5 181t96.5 136.5t148.5 85.5t191.5 30q97 0 178 -25.5t140 -75t95.5 -122.5t45.5 -168h-202q-20 238 -262 238q-60 0 -108.5 -20.5 t-82.5 -56.5t-53.5 -83.5t-19.5 -100.5q0 -115 57 -291h325v-153h-291q18 -45 18 -93q0 -65 -10 -118t-32.5 -98t-58 -86.5t-87.5 -84.5q37 13 74.5 18t75.5 5t102 -11t130.5 -23t124.5 -22q57 -11 78 -11q117 0 230 57v-198q-107 -47 -220 -47q-21 0 -57 7.5t-79.5 17.5 t-90.5 22t-91 22t-81 17t-58 7q-163 0 -367 -93z" />
<glyph unicode="&#xa4;" d="M79 365l143 146q-72 118 -72 238q0 123 72 242l-143 147l121 120l143 -144q113 77 246 77q132 0 246 -77l145 144l123 -120l-146 -147q73 -116 73 -242t-75 -238l148 -146l-123 -122l-145 143q-110 -73 -246 -73q-137 0 -246 75l-143 -145zM320 749q0 -54 21 -102.5 t57.5 -85t85.5 -58t105 -21.5q54 0 103.5 20.5t86 57t58 85.5t21.5 104q0 56 -21.5 105.5t-58 86t-85 58t-104.5 21.5t-105 -21.5t-85.5 -58t-57.5 -86t-21 -105.5z" />
<glyph unicode="&#xa5;" d="M1 1517h221l367 -672l369 672h223l-399 -692h329v-144h-425v-188h425v-143h-425v-350h-188v350h-431v143h431v188h-431v144h331z" />
<glyph unicode="&#xa6;" horiz-adv-x="551" d="M194 347h163v-793h-163v793zM194 725v792h163v-792h-163z" />
<glyph unicode="&#xa7;" d="M89 666q0 188 233 295q-138 120 -138 257q0 62 26.5 121.5t76 104.5t120.5 72.5t159 27.5q196 0 305.5 -93.5t128.5 -265.5h-202q-20 206 -220 206q-95 0 -146.5 -45t-51.5 -119q0 -36 11 -65t49 -64.5t109.5 -82.5t191.5 -117q113 -69 181.5 -122.5t105 -100.5 t48.5 -93.5t12 -99.5q0 -185 -234 -299q163 -107 163 -289q0 -74 -31.5 -136.5t-87.5 -107.5t-131 -70.5t-162 -25.5q-90 0 -168 23.5t-137.5 70.5t-98 116.5t-49.5 162.5h203q21 -216 250 -216q53 0 93.5 15t68 40t41.5 58t14 67q0 36 -15.5 67.5t-58.5 68.5t-119.5 86 t-198.5 120q-118 70 -186 126.5t-102.5 106.5t-43.5 98.5t-9 101.5zM275 689q0 -40 10.5 -72t39 -65.5t80 -71t133.5 -87.5q81 -50 137 -82t86 -56q140 68 140 191q0 36 -13.5 69t-44.5 67t-81 71.5t-124 81.5q-77 46 -132.5 85t-92.5 68q-138 -66 -138 -199z" />
<glyph unicode="&#xa8;" horiz-adv-x="708" d="M66 1296v213h190v-213h-190zM450 1296v213h189v-213h-189z" />
<glyph unicode="&#xa9;" horiz-adv-x="1564" d="M0 764q0 107 28.5 206.5t80 186.5t123 158t159 122.5t186.5 79t205 27.5q159 0 301.5 -62t249.5 -168.5t169 -249t62 -300.5t-60.5 -300t-167 -249.5t-249 -170.5t-305.5 -63q-160 0 -302.5 62.5t-249 169t-168.5 248.5t-62 303zM129 764q0 -133 51.5 -252.5t140.5 -209 t208 -141.5t252 -52q131 0 250 51.5t208 140.5t142 208t53 255q0 131 -51.5 249t-140 207.5t-208 141.5t-253.5 52q-136 0 -254.5 -52t-207.5 -141.5t-139.5 -207.5t-50.5 -249zM373 761q0 104 29.5 185.5t84.5 138t132 86.5t173 30q67 0 126.5 -18t106.5 -51.5t78.5 -82 t43.5 -109.5h-146q-31 147 -213 147q-67 0 -118 -23.5t-85 -67.5t-51.5 -104.5t-17.5 -133.5q0 -72 18.5 -130.5t53.5 -100.5t84.5 -65.5t109.5 -23.5q193 0 228 161h144q-70 -284 -369 -284q-90 0 -165 30t-130 87.5t-86 140t-31 188.5z" />
<glyph unicode="&#xaa;" horiz-adv-x="785" d="M44 987q0 259 446 259h69q0 58 -12 93t-35 53.5t-54.5 24.5t-71.5 6q-163 0 -167 -105h-152q20 226 328 226q163 0 238 -63.5t75 -212.5v-476h-149v73q-99 -90 -262 -90q-54 0 -100.5 16t-80 43.5t-53 66.5t-19.5 86zM83 536v122h611v-122h-611zM200 991q0 -94 136 -94 q24 0 55.5 7.5t63 22.5t59.5 35t45 45v128h-94q-265 0 -265 -144z" />
<glyph unicode="&#xab;" d="M146 548l329 472h153l-269 -472l269 -472h-153zM551 548l328 472h153l-268 -472l268 -472h-153z" />
<glyph unicode="&#xac;" horiz-adv-x="1238" d="M117 892v175h1006v-637h-176v462h-830z" />
<glyph unicode="&#xad;" horiz-adv-x="708" d="M67 456v187h571v-187h-571z" />
<glyph unicode="&#xae;" horiz-adv-x="1564" d="M0 764q0 107 28.5 206.5t80 186.5t123 158t159 122.5t186.5 79t205 27.5q159 0 301.5 -62t249.5 -168.5t169 -249t62 -300.5t-60.5 -300t-167 -249.5t-249 -170.5t-305.5 -63q-160 0 -302.5 62.5t-249 169t-168.5 248.5t-62 303zM129 764q0 -133 51.5 -252.5t140.5 -209 t208 -141.5t252 -52q131 0 250 51.5t208 140.5t142 208t53 255q0 131 -51.5 249t-140 207.5t-208 141.5t-253.5 52q-136 0 -254.5 -52t-207.5 -141.5t-139.5 -207.5t-50.5 -249zM448 330v841h316q333 0 333 -231q0 -222 -219 -239q113 -35 166 -160l91 -211h-157l-66 183 q-60 165 -223 165h-106v-348h-135zM583 797h171q200 0 200 128q0 132 -208 132h-163v-260z" />
<glyph unicode="&#xaf;" horiz-adv-x="708" d="M30 1324v155h648v-155h-648z" />
<glyph unicode="&#xb0;" horiz-adv-x="848" d="M139 1251q0 60 22.5 112.5t62 91t91 60.5t110.5 22q58 0 110.5 -23t91 -61.5t61.5 -90.5t23 -111q0 -60 -23 -112t-61.5 -90.5t-91 -61.5t-110.5 -23q-59 0 -111 23t-91 61.5t-61.5 90.5t-22.5 112zM252 1251q0 -38 14 -71t37.5 -56t55 -36t66.5 -13t66.5 14t55.5 38 t38 55.5t14 68.5q0 36 -14 68t-38 56t-56 37.5t-66 13.5q-33 0 -64 -12.5t-55 -35t-39 -55t-15 -72.5z" />
<glyph unicode="&#xb1;" horiz-adv-x="1238" d="M117 0v174h1006v-174h-1006zM117 708v171h416v417h175v-417h415v-171h-415v-416h-175v416h-416z" />
<glyph unicode="&#xb2;" horiz-adv-x="708" d="M24 759q26 172 271 318q67 40 107.5 70t63 55t29.5 48t7 50q0 114 -142 114q-134 0 -156 -100h-158q44 223 317 223q148 0 225.5 -63.5t77.5 -162.5q0 -45 -11.5 -83t-37 -71.5t-66 -66t-101.5 -66.5q-64 -37 -108.5 -71.5t-76.5 -67.5h404v-126h-645z" />
<glyph unicode="&#xb3;" horiz-adv-x="708" d="M34 964h160q12 -102 153 -102q159 0 159 138q0 105 -163 105h-57v115q184 0 184 110q0 87 -123 87q-118 0 -135 -84h-161q39 204 296 204q142 0 213.5 -54t71.5 -137q0 -141 -142 -181q178 -31 178 -185q0 -51 -21.5 -94.5t-62.5 -75.5t-98.5 -50.5t-130.5 -18.5 q-291 0 -321 223z" />
<glyph unicode="&#xb4;" horiz-adv-x="708" d="M235 1253l138 291h243l-228 -291h-153z" />
<glyph unicode="&#xb5;" d="M144 -423v1523h196v-748q0 -216 216 -216q40 0 74.5 7t67.5 27t68 54.5t75 88.5v787h193v-851q0 -113 89 -113q11 0 19.5 1.5t12.5 2.5v-161q-17 -5 -52 -5q-208 0 -258 175q-140 -175 -329 -175q-98 0 -179 50l3 -447h-196z" />
<glyph unicode="&#xb6;" horiz-adv-x="1140" d="M-1 1083q0 102 33.5 183t97 137t154.5 85t205 29h655v-150h-147v-1790h-175v1790h-233v-1790h-173v1082q-100 7 -178 41t-131 89.5t-80.5 130t-27.5 163.5z" />
<glyph unicode="&#xb7;" horiz-adv-x="589" d="M189 639v215h213v-215h-213z" />
<glyph unicode="&#xb8;" horiz-adv-x="708" d="M139 -320q28 -5 55.5 -6t57.5 -1q133 0 133 85q0 79 -145 79v163h145v-79q174 -24 174 -164q0 -203 -316 -203q-24 0 -50 1.5t-54 4.5v120z" />
<glyph unicode="&#xb9;" horiz-adv-x="708" d="M109 1217v129q271 0 271 191h112v-778h-150v509q-72 -51 -233 -51z" />
<glyph unicode="&#xba;" horiz-adv-x="775" d="M46 1155q0 92 25 164t70 122t108 76.5t139 26.5q77 0 140 -26.5t108 -76.5t70 -122t25 -164q0 -91 -25 -163.5t-70 -122.5t-108 -76.5t-140 -26.5q-76 0 -139 26t-108 76t-70 122t-25 165zM83 536v122h611v-122h-611zM202 1155q0 -253 186 -253q185 0 185 253 q0 251 -185 251q-186 0 -186 -251z" />
<glyph unicode="&#xbb;" d="M146 76l270 472l-270 472h153l329 -472l-329 -472h-153zM551 76l271 472l-271 472h153l328 -472l-328 -472h-153z" />
<glyph unicode="&#xbc;" horiz-adv-x="1769" d="M132 1217v129q270 0 270 191h111v-778h-150v509q-71 -51 -231 -51zM242 0l1078 1517h164l-1079 -1517h-163zM1020 160v126l419 492h127v-483h109v-135h-109v-160h-149v160h-397zM1165 295h252v293z" />
<glyph unicode="&#xbd;" horiz-adv-x="1769" d="M132 1217v129q270 0 270 191h111v-778h-150v509q-71 -51 -231 -51zM242 0l1078 1517h164l-1079 -1517h-163zM1065 0q23 170 268 317q67 40 108.5 69.5t63.5 54.5t29.5 48t7.5 52q0 115 -142 115q-133 0 -157 -101h-158q45 224 318 224q70 0 125.5 -16.5t95 -46.5t61 -72 t21.5 -93q0 -48 -11.5 -85t-37 -70t-67 -64.5t-101.5 -66.5q-62 -38 -107 -73t-78 -68h405v-124h-644z" />
<glyph unicode="&#xbe;" horiz-adv-x="1769" d="M56 964h160q11 -102 153 -102q159 0 159 138q0 105 -163 105h-59v115q186 0 186 110q0 87 -126 87q-117 0 -134 -84h-162q43 204 299 204q69 0 121.5 -15t89 -41.5t55.5 -61.5t19 -73q0 -141 -142 -181q177 -31 177 -185q0 -52 -22 -95.5t-63 -76t-99.5 -50t-129.5 -17.5 q-289 0 -319 223zM299 0l1081 1517h163l-1081 -1517h-163zM1020 160v126l419 492h127v-483h109v-135h-109v-160h-149v160h-397zM1165 295h252v293z" />
<glyph unicode="&#xbf;" d="M102 -33q0 53 10.5 99t35.5 91t67 91.5t107 100.5q66 56 103 93.5t55 75.5t22 85.5t4 121.5h183q0 -196 -44 -283q-47 -89 -163 -189q-59 -50 -93 -86.5t-53.5 -66.5t-25 -58t-5.5 -61q0 -63 22 -113.5t60.5 -86.5t90 -56t110.5 -20q250 0 291 288h204 q-9 -102 -48.5 -182.5t-103.5 -138t-151.5 -88t-190.5 -30.5q-107 0 -196.5 30.5t-154 85t-100.5 131t-36 166.5zM485 887v213h214v-213h-214z" />
<glyph unicode="&#xc0;" horiz-adv-x="1414" d="M-1 0l583 1517h216l619 -1517h-226l-176 462h-636l-169 -462h-211zM418 1972h244l137 -291h-153zM432 622h523l-266 704z" />
<glyph unicode="&#xc1;" horiz-adv-x="1414" d="M-1 0l583 1517h216l619 -1517h-226l-176 462h-636l-169 -462h-211zM432 622h523l-266 704zM568 1681l138 291h243l-228 -291h-153z" />
<glyph unicode="&#xc2;" horiz-adv-x="1414" d="M-1 0l583 1517h216l619 -1517h-226l-176 462h-636l-169 -462h-211zM363 1681l229 291h199l228 -291h-210l-118 176l-118 -176h-210zM432 622h523l-266 704z" />
<glyph unicode="&#xc3;" horiz-adv-x="1414" d="M-1 0l583 1517h216l619 -1517h-226l-176 462h-636l-169 -462h-211zM352 1643q0 109 58 172.5t152 63.5q25 0 67 -13t85.5 -29t78.5 -29t45 -13q65 0 73 89h136q0 -113 -57 -175.5t-152 -62.5q-21 0 -63.5 13.5t-85.5 30.5q-44 16 -80.5 29.5t-46.5 13.5q-64 0 -73 -90 h-137zM432 622h523l-266 704z" />
<glyph unicode="&#xc4;" horiz-adv-x="1414" d="M-1 0l583 1517h216l619 -1517h-226l-176 462h-636l-169 -462h-211zM403 1724v213h190v-213h-190zM432 622h523l-266 704zM787 1724v213h189v-213h-189z" />
<glyph unicode="&#xc5;" horiz-adv-x="1414" d="M-1 0l583 1517h216l619 -1517h-226l-176 462h-636l-169 -462h-211zM432 622h523l-266 704zM505 1706q0 37 14 71.5t40 60t59.5 40.5t72.5 15q37 0 70.5 -15t59.5 -40t41 -59t15 -73q0 -40 -15 -73.5t-41 -59.5t-59.5 -40t-70.5 -14q-39 0 -72.5 15t-59.5 40.5t-40 59 t-14 72.5zM582 1706q0 -49 31.5 -81t77.5 -32q21 0 42 9.5t36 24.5t24 35.5t9 43.5q0 24 -10 45t-25.5 36t-35.5 23t-40 8q-45 0 -77 -32.5t-32 -79.5z" />
<glyph unicode="&#xc6;" horiz-adv-x="2122" d="M0 0l875 1517h1096v-179h-757v-463h696v-181h-696v-512h791v-182h-994v439h-536l-243 -439h-232zM573 616h438v722h-43z" />
<glyph unicode="&#xc7;" horiz-adv-x="1533" d="M99 759q0 181 50 326t142 247t223 157t293 55q122 0 230 -35t190.5 -98.5t134 -153t62.5 -197.5h-207q-9 70 -41 128t-84 98.5t-124.5 62.5t-159.5 22q-117 0 -210 -41.5t-157.5 -119t-99 -191.5t-34.5 -260q0 -148 35.5 -262t99.5 -192.5t155.5 -118.5t206.5 -40 q188 0 292.5 88t120.5 248h207q-11 -123 -62 -218t-133 -159.5t-190 -97.5t-232 -33q-162 0 -293 55t-223 157.5t-142 247.5t-50 325zM604 -320q28 -5 55.5 -6t57.5 -1q133 0 133 85q0 79 -145 79v163h145v-79q174 -24 174 -164q0 -203 -316 -203q-24 0 -50 1.5t-54 4.5v120 z" />
<glyph unicode="&#xc8;" horiz-adv-x="1414" d="M172 0v1517h1096v-179h-898v-463h838v-181h-838v-512h933v-182h-1131zM461 1972h244l137 -291h-153z" />
<glyph unicode="&#xc9;" horiz-adv-x="1414" d="M172 0v1517h1096v-179h-898v-463h838v-181h-838v-512h933v-182h-1131zM590 1681l138 291h243l-228 -291h-153z" />
<glyph unicode="&#xca;" horiz-adv-x="1414" d="M172 0v1517h1096v-179h-898v-463h838v-181h-838v-512h933v-182h-1131zM405 1681l229 291h199l228 -291h-210l-118 176l-118 -176h-210z" />
<glyph unicode="&#xcb;" horiz-adv-x="1414" d="M172 0v1517h1096v-179h-898v-463h838v-181h-838v-512h933v-182h-1131zM442 1724v213h190v-213h-190zM826 1724v213h189v-213h-189z" />
<glyph unicode="&#xcc;" horiz-adv-x="589" d="M41 1972h244l137 -291h-153zM194 0v1517h204v-1517h-204z" />
<glyph unicode="&#xcd;" horiz-adv-x="589" d="M159 1681l138 291h243l-228 -291h-153zM194 0v1517h204v-1517h-204z" />
<glyph unicode="&#xce;" horiz-adv-x="589" d="M-25 1681l229 291h199l228 -291h-210l-118 176l-118 -176h-210zM194 0v1517h204v-1517h-204z" />
<glyph unicode="&#xcf;" horiz-adv-x="589" d="M17 1724v213h190v-213h-190zM194 0v1517h204v-1517h-204zM401 1724v213h189v-213h-189z" />
<glyph unicode="&#xd0;" horiz-adv-x="1533" d="M1 669v182h171v666h479q775 0 775 -749q0 -768 -775 -768h-479v669h-171zM370 182h276q172 0 283 40.5t175 116.5t89 184.5t25 244.5q0 133 -25.5 238t-90 179.5t-175 113.5t-281.5 39h-276v-487h415v-182h-415v-487z" />
<glyph unicode="&#xd1;" horiz-adv-x="1533" d="M172 0v1517h203l796 -1197v1197h190v-1517h-206l-795 1198v-1198h-188zM442 1709q0 109 58 172.5t152 63.5q25 0 67 -13t85.5 -29t78.5 -29t45 -13q65 0 73 89h136q0 -113 -57 -175.5t-152 -62.5q-21 0 -63.5 13.5t-85.5 30.5q-44 16 -80.5 29.5t-46.5 13.5 q-64 0 -73 -90h-137z" />
<glyph unicode="&#xd2;" horiz-adv-x="1652" d="M99 759q0 173 52.5 317.5t148.5 248.5t230 161.5t297 57.5q160 0 293 -55.5t229.5 -158.5t150 -248t53.5 -323t-54.5 -323.5t-151 -247.5t-229.5 -158t-291 -56q-159 0 -293 57.5t-230.5 160.5t-150.5 247t-54 320zM307 759q0 -143 39 -256.5t107.5 -193t163.5 -121.5 t208 -42q116 0 212 43t164.5 123t106.5 193t38 254q0 143 -38 257t-106.5 192.5t-163 120.5t-207.5 42q-116 0 -212 -41.5t-165 -119t-108 -191.5t-39 -260zM589 1972h244l137 -291h-153z" />
<glyph unicode="&#xd3;" horiz-adv-x="1652" d="M99 759q0 173 52.5 317.5t148.5 248.5t230 161.5t297 57.5q160 0 293 -55.5t229.5 -158.5t150 -248t53.5 -323t-54.5 -323.5t-151 -247.5t-229.5 -158t-291 -56q-159 0 -293 57.5t-230.5 160.5t-150.5 247t-54 320zM307 759q0 -143 39 -256.5t107.5 -193t163.5 -121.5 t208 -42q116 0 212 43t164.5 123t106.5 193t38 254q0 143 -38 257t-106.5 192.5t-163 120.5t-207.5 42q-116 0 -212 -41.5t-165 -119t-108 -191.5t-39 -260zM708 1681l138 291h243l-228 -291h-153z" />
<glyph unicode="&#xd4;" horiz-adv-x="1652" d="M99 759q0 173 52.5 317.5t148.5 248.5t230 161.5t297 57.5q160 0 293 -55.5t229.5 -158.5t150 -248t53.5 -323t-54.5 -323.5t-151 -247.5t-229.5 -158t-291 -56q-159 0 -293 57.5t-230.5 160.5t-150.5 247t-54 320zM307 759q0 -143 39 -256.5t107.5 -193t163.5 -121.5 t208 -42q116 0 212 43t164.5 123t106.5 193t38 254q0 143 -38 257t-106.5 192.5t-163 120.5t-207.5 42q-116 0 -212 -41.5t-165 -119t-108 -191.5t-39 -260zM498 1681l229 291h199l228 -291h-210l-118 176l-118 -176h-210z" />
<glyph unicode="&#xd5;" horiz-adv-x="1652" d="M99 759q0 173 52.5 317.5t148.5 248.5t230 161.5t297 57.5q160 0 293 -55.5t229.5 -158.5t150 -248t53.5 -323t-54.5 -323.5t-151 -247.5t-229.5 -158t-291 -56q-159 0 -293 57.5t-230.5 160.5t-150.5 247t-54 320zM307 759q0 -143 39 -256.5t107.5 -193t163.5 -121.5 t208 -42q116 0 212 43t164.5 123t106.5 193t38 254q0 143 -38 257t-106.5 192.5t-163 120.5t-207.5 42q-116 0 -212 -41.5t-165 -119t-108 -191.5t-39 -260zM476 1709q0 109 58 172.5t152 63.5q25 0 67 -13t85.5 -29t78.5 -29t45 -13q65 0 73 89h136q0 -113 -57 -175.5 t-152 -62.5q-21 0 -63.5 13.5t-85.5 30.5q-44 16 -80.5 29.5t-46.5 13.5q-64 0 -73 -90h-137z" />
<glyph unicode="&#xd6;" horiz-adv-x="1652" d="M99 759q0 173 52.5 317.5t148.5 248.5t230 161.5t297 57.5q160 0 293 -55.5t229.5 -158.5t150 -248t53.5 -323t-54.5 -323.5t-151 -247.5t-229.5 -158t-291 -56q-159 0 -293 57.5t-230.5 160.5t-150.5 247t-54 320zM307 759q0 -143 39 -256.5t107.5 -193t163.5 -121.5 t208 -42q116 0 212 43t164.5 123t106.5 193t38 254q0 143 -38 257t-106.5 192.5t-163 120.5t-207.5 42q-116 0 -212 -41.5t-165 -119t-108 -191.5t-39 -260zM539 1724v213h190v-213h-190zM923 1724v213h189v-213h-189z" />
<glyph unicode="&#xd7;" horiz-adv-x="1238" d="M172 425l324 324l-324 323l123 123l326 -321l323 321l123 -123l-323 -323l323 -324l-123 -125l-323 326l-326 -326z" />
<glyph unicode="&#xd8;" horiz-adv-x="1652" d="M83 30l182 202q-166 221 -166 527q0 173 52.5 317.5t148.5 248.5t230 161.5t297 57.5q273 0 464 -161l175 194l104 -87l-181 -204q164 -208 164 -527q0 -178 -54.5 -323.5t-151 -247.5t-229.5 -158t-291 -56q-266 0 -467 162l-174 -193zM307 759q0 -227 91 -377l767 861 q-133 128 -334 128q-116 0 -212 -41.5t-165 -119t-108 -191.5t-39 -260zM485 275q141 -129 340 -129q116 0 212 43t164.5 123t106.5 193t38 254q0 222 -93 379z" />
<glyph unicode="&#xd9;" horiz-adv-x="1533" d="M172 639v878h198v-874q0 -151 26 -246t76 -149t123.5 -73t170.5 -19q96 0 170 20t124 73.5t75.5 148.5t25.5 245v874h200v-878q0 -157 -27 -280t-94 -209t-182.5 -131t-291.5 -45q-135 0 -231.5 26.5t-162.5 72.5t-105.5 109t-61 137t-27.5 155.5t-6 164.5zM509 1972h244 l137 -291h-153z" />
<glyph unicode="&#xda;" horiz-adv-x="1533" d="M172 639v878h198v-874q0 -151 26 -246t76 -149t123.5 -73t170.5 -19q96 0 170 20t124 73.5t75.5 148.5t25.5 245v874h200v-878q0 -157 -27 -280t-94 -209t-182.5 -131t-291.5 -45q-135 0 -231.5 26.5t-162.5 72.5t-105.5 109t-61 137t-27.5 155.5t-6 164.5zM650 1681 l138 291h243l-228 -291h-153z" />
<glyph unicode="&#xdb;" horiz-adv-x="1533" d="M172 639v878h198v-874q0 -151 26 -246t76 -149t123.5 -73t170.5 -19q96 0 170 20t124 73.5t75.5 148.5t25.5 245v874h200v-878q0 -157 -27 -280t-94 -209t-182.5 -131t-291.5 -45q-135 0 -231.5 26.5t-162.5 72.5t-105.5 109t-61 137t-27.5 155.5t-6 164.5zM436 1681 l229 291h199l228 -291h-210l-118 176l-118 -176h-210z" />
<glyph unicode="&#xdc;" horiz-adv-x="1533" d="M172 639v878h198v-874q0 -151 26 -246t76 -149t123.5 -73t170.5 -19q96 0 170 20t124 73.5t75.5 148.5t25.5 245v874h200v-878q0 -157 -27 -280t-94 -209t-182.5 -131t-291.5 -45q-135 0 -231.5 26.5t-162.5 72.5t-105.5 109t-61 137t-27.5 155.5t-6 164.5zM395 1724v213 h190v-213h-190zM779 1724v213h189v-213h-189z" />
<glyph unicode="&#xdd;" horiz-adv-x="1414" d="M10 1517h245l454 -698l452 698h243l-596 -874v-643h-202v643zM590 1615l138 291h243l-228 -291h-153z" />
<glyph unicode="&#xde;" horiz-adv-x="1414" d="M172 0v1517h198v-297h366q92 0 170 -6.5t141.5 -26.5t113.5 -56.5t87 -96.5q36 -60 55.5 -121.5t19.5 -134.5q0 -471 -569 -471h-384v-307h-198zM370 489h385q99 0 167 18.5t110.5 53.5t62 87.5t19.5 120.5q0 46 -13 87.5t-34.5 75t-50.5 56.5t-64 32q-64 21 -203 21 h-379v-552z" />
<glyph unicode="&#xdf;" horiz-adv-x="1296" d="M144 0v1034q0 510 449 510q92 0 164 -22.5t122 -62.5t76.5 -94.5t26.5 -116.5q0 -50 -27 -123.5t-80 -169.5q-50 -88 -50 -130q0 -26 6 -43t26 -36.5t58.5 -46.5t102.5 -70q62 -41 102 -78.5t63.5 -74t33 -74t9.5 -80.5q0 -73 -29 -136t-79 -110t-120 -74.5t-153 -27.5 q-74 0 -140 20t-115 56.5t-79.5 89t-32.5 116.5h187q17 -127 177 -127q83 0 135.5 48.5t52.5 129.5q0 38 -7.5 62t-27.5 45.5t-55 46.5t-89 62q-54 35 -95 65t-69.5 61.5t-43 67t-14.5 80.5q0 67 79 207q46 83 67.5 138.5t22.5 85.5q0 35 -15 65t-43 51.5t-66 34t-85 12.5 q-56 0 -101.5 -15t-78.5 -55.5t-51 -111.5t-18 -182v-1027h-196z" />
<glyph unicode="&#xe0;" d="M80 292q0 386 665 386h96q0 76 -6.5 131.5t-32.5 92t-78.5 53.5t-145.5 17q-262 0 -271 -187h-194q24 338 475 338q104 0 187 -17.5t141 -63t88 -125.5t30 -206v-711h-193v113q-147 -139 -385 -139q-81 0 -150 23t-119.5 64.5t-78.5 100t-28 130.5zM283 300 q0 -86 61 -128.5t169 -42.5q48 0 94.5 10.5t89 31.5t80 50t64.5 68v244h-133q-425 0 -425 -233zM319 1544h244l137 -291h-153z" />
<glyph unicode="&#xe1;" d="M80 292q0 386 665 386h96q0 76 -6.5 131.5t-32.5 92t-78.5 53.5t-145.5 17q-262 0 -271 -187h-194q24 338 475 338q104 0 187 -17.5t141 -63t88 -125.5t30 -206v-711h-193v113q-147 -139 -385 -139q-81 0 -150 23t-119.5 64.5t-78.5 100t-28 130.5zM283 300 q0 -86 61 -128.5t169 -42.5q48 0 94.5 10.5t89 31.5t80 50t64.5 68v244h-133q-425 0 -425 -233zM474 1253l138 291h243l-228 -291h-153z" />
<glyph unicode="&#xe2;" d="M80 292q0 386 665 386h96q0 76 -6.5 131.5t-32.5 92t-78.5 53.5t-145.5 17q-262 0 -271 -187h-194q24 338 475 338q104 0 187 -17.5t141 -63t88 -125.5t30 -206v-711h-193v113q-147 -139 -385 -139q-81 0 -150 23t-119.5 64.5t-78.5 100t-28 130.5zM262 1253l229 291h199 l228 -291h-210l-118 176l-118 -176h-210zM283 300q0 -86 61 -128.5t169 -42.5q48 0 94.5 10.5t89 31.5t80 50t64.5 68v244h-133q-425 0 -425 -233z" />
<glyph unicode="&#xe3;" d="M80 292q0 386 665 386h96q0 76 -6.5 131.5t-32.5 92t-78.5 53.5t-145.5 17q-262 0 -271 -187h-194q24 338 475 338q104 0 187 -17.5t141 -63t88 -125.5t30 -206v-711h-193v113q-147 -139 -385 -139q-81 0 -150 23t-119.5 64.5t-78.5 100t-28 130.5zM239 1281 q0 109 58 172.5t152 63.5q25 0 67 -13t85.5 -29t78.5 -29t45 -13q65 0 73 89h136q0 -113 -57 -175.5t-152 -62.5q-21 0 -63.5 13.5t-85.5 30.5q-44 16 -80.5 29.5t-46.5 13.5q-64 0 -73 -90h-137zM283 300q0 -86 61 -128.5t169 -42.5q48 0 94.5 10.5t89 31.5t80 50t64.5 68 v244h-133q-425 0 -425 -233z" />
<glyph unicode="&#xe4;" d="M80 292q0 386 665 386h96q0 76 -6.5 131.5t-32.5 92t-78.5 53.5t-145.5 17q-262 0 -271 -187h-194q24 338 475 338q104 0 187 -17.5t141 -63t88 -125.5t30 -206v-711h-193v113q-147 -139 -385 -139q-81 0 -150 23t-119.5 64.5t-78.5 100t-28 130.5zM283 300 q0 -86 61 -128.5t169 -42.5q48 0 94.5 10.5t89 31.5t80 50t64.5 68v244h-133q-425 0 -425 -233zM305 1296v213h190v-213h-190zM689 1296v213h189v-213h-189z" />
<glyph unicode="&#xe5;" d="M80 292q0 386 665 386h96q0 76 -6.5 131.5t-32.5 92t-78.5 53.5t-145.5 17q-262 0 -271 -187h-194q24 338 475 338q104 0 187 -17.5t141 -63t88 -125.5t30 -206v-711h-193v113q-147 -139 -385 -139q-81 0 -150 23t-119.5 64.5t-78.5 100t-28 130.5zM283 300 q0 -86 61 -128.5t169 -42.5q48 0 94.5 10.5t89 31.5t80 50t64.5 68v244h-133q-425 0 -425 -233zM405 1406q0 40 15 74t40 60t59 41t73 15q37 0 70.5 -15t59.5 -41t41 -60t15 -74q0 -39 -15 -73.5t-41 -59.5t-59.5 -40t-70.5 -15q-39 0 -73 15t-59 40t-40 59.5t-15 73.5z M482 1406q0 -26 9 -46t25 -35t36 -23t40 -8q19 0 39 8t35.5 23t25.5 35.5t10 45.5q0 23 -9 43t-24 35t-35.5 24t-41.5 9q-41 0 -75.5 -28.5t-34.5 -82.5z" />
<glyph unicode="&#xe6;" horiz-adv-x="1886" d="M80 292q0 386 644 386h95q0 64 -5.5 118.5t-30 93.5t-76 60.5t-141.5 21.5q-243 0 -259 -187h-194q24 338 465 338q280 0 377 -138q135 138 352 138q117 0 211 -39t159.5 -112.5t100 -180t34.5 -242.5v-47h-797q10 -185 92.5 -279t220.5 -94q52 0 97.5 12.5t81.5 38.5 t58 63t25 86h200q-11 -86 -49.5 -151.5t-99.5 -111t-140.5 -69t-172.5 -23.5q-284 0 -426 212q-28 -47 -65.5 -86t-91 -66.5t-126.5 -43.5t-173 -16q-81 0 -148.5 23t-115.5 64.5t-75 100t-27 130.5zM283 300q0 -171 219 -171q70 0 128.5 20t101 60.5t65 101.5t22.5 142v80 h-133q-403 0 -403 -233zM1020 656h587q-50 316 -300 316q-245 0 -287 -316z" />
<glyph unicode="&#xe7;" horiz-adv-x="1061" d="M76 549q0 140 37 247.5t105 179.5t162.5 109.5t208.5 37.5q95 0 172 -24.5t134 -70.5t92 -111.5t45 -147.5h-200q-3 49 -23.5 87t-53.5 63.5t-76 39t-90 13.5q-70 0 -128 -27.5t-99.5 -81.5t-64 -133t-22.5 -181q0 -209 83.5 -314.5t230.5 -105.5q47 0 90 11.5t76 35.5 t53.5 62t23.5 91h200q-10 -87 -47.5 -153t-96.5 -111t-135.5 -68t-163.5 -23q-114 0 -208.5 37.5t-162.5 110t-105 180t-37 247.5zM402 -320q28 -5 55.5 -6t57.5 -1q133 0 133 85q0 79 -145 79v163h145v-79q174 -24 174 -164q0 -203 -316 -203q-24 0 -50 1.5t-54 4.5v120z " />
<glyph unicode="&#xe8;" d="M76 549q0 136 38 242.5t105.5 180t162 112.5t207.5 39q117 0 213 -39t163 -112.5t103.5 -180t36.5 -242.5v-47h-828q8 -97 35.5 -168t72 -116.5t102.5 -67t125 -21.5q49 0 96.5 12.5t85.5 37.5t62.5 62.5t27.5 87.5h200q-12 -87 -52.5 -153t-103.5 -111t-143.5 -68 t-172.5 -23q-120 0 -218.5 38.5t-169.5 111.5t-109.5 180.5t-38.5 244.5zM283 656h616q-24 161 -104 238.5t-206 77.5q-57 0 -108 -18.5t-91 -57.5t-67.5 -98.5t-39.5 -141.5zM328 1544h244l137 -291h-153z" />
<glyph unicode="&#xe9;" d="M76 549q0 136 38 242.5t105.5 180t162 112.5t207.5 39q117 0 213 -39t163 -112.5t103.5 -180t36.5 -242.5v-47h-828q8 -97 35.5 -168t72 -116.5t102.5 -67t125 -21.5q49 0 96.5 12.5t85.5 37.5t62.5 62.5t27.5 87.5h200q-12 -87 -52.5 -153t-103.5 -111t-143.5 -68 t-172.5 -23q-120 0 -218.5 38.5t-169.5 111.5t-109.5 180.5t-38.5 244.5zM283 656h616q-24 161 -104 238.5t-206 77.5q-57 0 -108 -18.5t-91 -57.5t-67.5 -98.5t-39.5 -141.5zM474 1253l138 291h243l-228 -291h-153z" />
<glyph unicode="&#xea;" d="M76 549q0 136 38 242.5t105.5 180t162 112.5t207.5 39q117 0 213 -39t163 -112.5t103.5 -180t36.5 -242.5v-47h-828q8 -97 35.5 -168t72 -116.5t102.5 -67t125 -21.5q49 0 96.5 12.5t85.5 37.5t62.5 62.5t27.5 87.5h200q-12 -87 -52.5 -153t-103.5 -111t-143.5 -68 t-172.5 -23q-120 0 -218.5 38.5t-169.5 111.5t-109.5 180.5t-38.5 244.5zM262 1253l229 291h199l228 -291h-210l-118 176l-118 -176h-210zM283 656h616q-24 161 -104 238.5t-206 77.5q-57 0 -108 -18.5t-91 -57.5t-67.5 -98.5t-39.5 -141.5z" />
<glyph unicode="&#xeb;" d="M76 549q0 136 38 242.5t105.5 180t162 112.5t207.5 39q117 0 213 -39t163 -112.5t103.5 -180t36.5 -242.5v-47h-828q8 -97 35.5 -168t72 -116.5t102.5 -67t125 -21.5q49 0 96.5 12.5t85.5 37.5t62.5 62.5t27.5 87.5h200q-12 -87 -52.5 -153t-103.5 -111t-143.5 -68 t-172.5 -23q-120 0 -218.5 38.5t-169.5 111.5t-109.5 180.5t-38.5 244.5zM283 656h616q-24 161 -104 238.5t-206 77.5q-57 0 -108 -18.5t-91 -57.5t-67.5 -98.5t-39.5 -141.5zM305 1296v213h190v-213h-190zM689 1296v213h189v-213h-189z" />
<glyph unicode="&#xec;" horiz-adv-x="483" d="M-21 1544h244l139 -291h-153zM144 0v1100h196v-1100h-196z" />
<glyph unicode="&#xed;" horiz-adv-x="483" d="M124 1253l139 291h245l-231 -291h-153zM144 0v1100h196v-1100h-196z" />
<glyph unicode="&#xee;" horiz-adv-x="483" d="M-87 1253l229 291h198l231 -291h-212l-117 176l-118 -176h-211zM144 0v1100h196v-1100h-196z" />
<glyph unicode="&#xef;" horiz-adv-x="483" d="M-44 1296v213h193v-213h-193zM144 0v1100h196v-1100h-196zM340 1296v213h191v-213h-191z" />
<glyph unicode="&#xf0;" d="M76 536q0 140 38.5 246t107 177t163 106t204.5 35q95 0 166 -39q-51 112 -134 203l-255 -116l-51 100l221 102q-83 81 -214 167h226q48 -36 81 -61.5t49 -41.5l221 103l55 -98l-188 -89q91 -104 156 -201t105 -191q38 -94 58 -193.5t20 -208.5q0 -136 -37.5 -240 t-105.5 -175.5t-163 -109t-210 -37.5q-113 0 -207.5 36t-162 106.5t-105.5 176t-38 243.5zM275 536q0 -199 83.5 -303t230.5 -104q70 0 127.5 25.5t99 76.5t64 127.5t22.5 177.5q0 103 -22.5 179.5t-64 128t-99.5 76.5t-127 25q-68 0 -126 -26.5t-100.5 -78t-65 -128 t-22.5 -176.5z" />
<glyph unicode="&#xf1;" d="M144 0v1100h196v-142q73 86 154.5 125.5t173.5 39.5q373 0 373 -402v-721h-197v711q0 134 -47.5 193.5t-158.5 59.5q-150 0 -298 -176v-788h-196zM240 1281q0 109 58 172.5t152 63.5q25 0 67 -13t85.5 -29t78.5 -29t45 -13q65 0 73 89h136q0 -113 -57 -175.5t-152 -62.5 q-21 0 -63.5 13.5t-85.5 30.5q-44 16 -80.5 29.5t-46.5 13.5q-64 0 -73 -90h-137z" />
<glyph unicode="&#xf2;" d="M76 549q0 140 37 247.5t105 179.5t162.5 109.5t208.5 37.5q117 0 213 -39t163 -112.5t103.5 -180t36.5 -242.5q0 -140 -37.5 -247.5t-105.5 -180t-163 -110t-210 -37.5q-114 0 -208.5 37.5t-162.5 110t-105 180t-37 247.5zM275 549q0 -209 83.5 -314.5t230.5 -105.5 q146 0 229.5 105t83.5 315q0 106 -22.5 185.5t-64 132t-99.5 79t-127 26.5q-70 0 -128 -27.5t-99.5 -81.5t-64 -133t-22.5 -181zM324 1544h244l137 -291h-153z" />
<glyph unicode="&#xf3;" d="M76 549q0 140 37 247.5t105 179.5t162.5 109.5t208.5 37.5q117 0 213 -39t163 -112.5t103.5 -180t36.5 -242.5q0 -140 -37.5 -247.5t-105.5 -180t-163 -110t-210 -37.5q-114 0 -208.5 37.5t-162.5 110t-105 180t-37 247.5zM275 549q0 -209 83.5 -314.5t230.5 -105.5 q146 0 229.5 105t83.5 315q0 106 -22.5 185.5t-64 132t-99.5 79t-127 26.5q-70 0 -128 -27.5t-99.5 -81.5t-64 -133t-22.5 -181zM474 1253l138 291h243l-228 -291h-153z" />
<glyph unicode="&#xf4;" d="M76 549q0 140 37 247.5t105 179.5t162.5 109.5t208.5 37.5q117 0 213 -39t163 -112.5t103.5 -180t36.5 -242.5q0 -140 -37.5 -247.5t-105.5 -180t-163 -110t-210 -37.5q-114 0 -208.5 37.5t-162.5 110t-105 180t-37 247.5zM264 1253l229 291h199l228 -291h-210l-118 176 l-118 -176h-210zM275 549q0 -209 83.5 -314.5t230.5 -105.5q146 0 229.5 105t83.5 315q0 106 -22.5 185.5t-64 132t-99.5 79t-127 26.5q-70 0 -128 -27.5t-99.5 -81.5t-64 -133t-22.5 -181z" />
<glyph unicode="&#xf5;" d="M76 549q0 140 37 247.5t105 179.5t162.5 109.5t208.5 37.5q117 0 213 -39t163 -112.5t103.5 -180t36.5 -242.5q0 -140 -37.5 -247.5t-105.5 -180t-163 -110t-210 -37.5q-114 0 -208.5 37.5t-162.5 110t-105 180t-37 247.5zM242 1281q0 109 58 172.5t152 63.5q25 0 67 -13 t85.5 -29t78.5 -29t45 -13q65 0 73 89h136q0 -113 -57 -175.5t-152 -62.5q-21 0 -63.5 13.5t-85.5 30.5q-44 16 -80.5 29.5t-46.5 13.5q-64 0 -73 -90h-137zM275 549q0 -209 83.5 -314.5t230.5 -105.5q146 0 229.5 105t83.5 315q0 106 -22.5 185.5t-64 132t-99.5 79 t-127 26.5q-70 0 -128 -27.5t-99.5 -81.5t-64 -133t-22.5 -181z" />
<glyph unicode="&#xf6;" d="M76 549q0 140 37 247.5t105 179.5t162.5 109.5t208.5 37.5q117 0 213 -39t163 -112.5t103.5 -180t36.5 -242.5q0 -140 -37.5 -247.5t-105.5 -180t-163 -110t-210 -37.5q-114 0 -208.5 37.5t-162.5 110t-105 180t-37 247.5zM275 549q0 -209 83.5 -314.5t230.5 -105.5 q146 0 229.5 105t83.5 315q0 106 -22.5 185.5t-64 132t-99.5 79t-127 26.5q-70 0 -128 -27.5t-99.5 -81.5t-64 -133t-22.5 -181zM305 1296v213h190v-213h-190zM689 1296v213h189v-213h-189z" />
<glyph unicode="&#xf7;" horiz-adv-x="1238" d="M117 662v173h1006v-173h-1006zM513 309v214h212v-214h-212zM513 977v210h212v-210h-212z" />
<glyph unicode="&#xf8;" d="M76 549q0 140 37 247.5t105 179.5t162.5 109.5t208.5 37.5q172 0 299 -82l103 134l102 -72l-113 -146q125 -152 125 -408q0 -140 -37.5 -247.5t-105.5 -180t-163 -110t-210 -37.5q-174 0 -297 85l-106 -135l-97 76q45 54 69.5 85.5t38.5 56.5q-121 151 -121 407zM275 549 q0 -154 45 -249l462 601q-80 71 -193 71q-70 0 -128 -27.5t-99.5 -81.5t-64 -133t-22.5 -181zM395 197q78 -68 194 -68q146 0 229.5 105t83.5 315q0 157 -45 249z" />
<glyph unicode="&#xf9;" d="M140 380v720h196v-712q0 -135 47 -193.5t158 -58.5q161 0 300 177v787h193v-1100h-193v140q-146 -166 -328 -166q-373 0 -373 406zM331 1544h244l137 -291h-153z" />
<glyph unicode="&#xfa;" d="M140 380v720h196v-712q0 -135 47 -193.5t158 -58.5q161 0 300 177v787h193v-1100h-193v140q-146 -166 -328 -166q-373 0 -373 406zM474 1253l138 291h243l-228 -291h-153z" />
<glyph unicode="&#xfb;" d="M140 380v720h196v-712q0 -135 47 -193.5t158 -58.5q161 0 300 177v787h193v-1100h-193v140q-146 -166 -328 -166q-373 0 -373 406zM263 1253l229 291h199l228 -291h-210l-118 176l-118 -176h-210z" />
<glyph unicode="&#xfc;" d="M140 380v720h196v-712q0 -135 47 -193.5t158 -58.5q161 0 300 177v787h193v-1100h-193v140q-146 -166 -328 -166q-373 0 -373 406zM305 1296v213h190v-213h-190zM689 1296v213h189v-213h-189z" />
<glyph unicode="&#xfd;" horiz-adv-x="1061" d="M29 1100h211l291 -860l291 860h210l-416 -1100q-43 -113 -80.5 -196.5t-80 -139.5t-94 -83t-121.5 -27q-38 0 -69 4t-58 12v178q49 -13 93 -13q146 0 236 265zM414 1253l138 291h243l-228 -291h-153z" />
<glyph unicode="&#xfe;" d="M144 -423v1940h196v-549q129 155 315 155q107 0 190.5 -40.5t141.5 -114t88 -177t30 -232.5q0 -134 -35 -242t-97 -184.5t-148 -117.5t-186 -41q-179 0 -299 112v-509h-196zM340 262q125 -133 288 -133q130 0 202 105.5t72 324.5q0 209 -68 311t-198 102 q-161 0 -296 -190v-520z" />
<glyph unicode="&#xff;" horiz-adv-x="1061" d="M29 1100h211l291 -860l291 860h210l-416 -1100q-43 -113 -80.5 -196.5t-80 -139.5t-94 -83t-121.5 -27q-38 0 -69 4t-58 12v178q49 -13 93 -13q146 0 236 265zM245 1296v213h190v-213h-190zM629 1296v213h189v-213h-189z" />
<glyph unicode="&#x152;" horiz-adv-x="2122" d="M99 759q0 181 42.5 326t124 247t200.5 157t269 55q62 0 123 -16t117 -46.5t103 -71.5t80 -90v197h815v-179h-613v-463h556v-181h-556v-512h649v-182h-851v200q-33 -51 -80 -92.5t-103 -71t-117 -46t-123 -16.5q-152 0 -270 56t-199.5 158t-124 247.5t-42.5 323.5z M307 759q0 -150 30.5 -264.5t85.5 -192t133.5 -117t175.5 -39.5q426 0 426 613q0 612 -422 612q-104 0 -184 -41.5t-134.5 -119t-82.5 -191.5t-28 -260z" />
<glyph unicode="&#x153;" horiz-adv-x="2003" d="M76 549q0 140 37 247.5t105 179.5t162.5 109.5t208.5 37.5q275 0 415 -198q141 198 410 198q116 0 211 -39t162.5 -112.5t104.5 -180t37 -242.5v-47h-826q4 -93 31 -162.5t70.5 -116.5t102.5 -70.5t127 -23.5q50 0 98 12.5t86 37.5t61.5 62.5t26.5 87.5h202 q-12 -86 -52.5 -152.5t-104.5 -111.5t-144.5 -68t-172.5 -23q-280 0 -430 200q-140 -200 -415 -200q-114 0 -208.5 37.5t-162.5 110t-105 180t-37 247.5zM275 549q0 -209 83.5 -314.5t230.5 -105.5q146 0 229.5 105t83.5 315q0 106 -22.5 185.5t-64 132t-99.5 79t-127 26.5 q-70 0 -128 -27.5t-99.5 -81.5t-64 -133t-22.5 -181zM1105 656h618q-24 159 -107.5 237.5t-201.5 78.5q-121 0 -200.5 -75.5t-108.5 -240.5z" />
<glyph unicode="&#x178;" horiz-adv-x="1414" d="M10 1517h245l454 -698l452 698h243l-596 -874v-643h-202v643zM418 1658v213h190v-213h-190zM802 1658v213h189v-213h-189z" />
<glyph unicode="&#x2c6;" horiz-adv-x="837" d="M90 1253l229 291h199l228 -291h-210l-118 176l-118 -176h-210z" />
<glyph unicode="&#x2dc;" horiz-adv-x="875" d="M90 1281q0 109 58 172.5t152 63.5q25 0 67 -13t85.5 -29t78.5 -29t45 -13q65 0 73 89h136q0 -113 -57 -175.5t-152 -62.5q-21 0 -63.5 13.5t-85.5 30.5q-44 16 -80.5 29.5t-46.5 13.5q-64 0 -73 -90h-137z" />
<glyph unicode="&#x2000;" horiz-adv-x="986" />
<glyph unicode="&#x2001;" horiz-adv-x="1972" />
<glyph unicode="&#x2002;" horiz-adv-x="986" />
<glyph unicode="&#x2003;" horiz-adv-x="1972" />
<glyph unicode="&#x2004;" horiz-adv-x="657" />
<glyph unicode="&#x2005;" horiz-adv-x="493" />
<glyph unicode="&#x2006;" horiz-adv-x="328" />
<glyph unicode="&#x2007;" horiz-adv-x="328" />
<glyph unicode="&#x2008;" horiz-adv-x="246" />
<glyph unicode="&#x2009;" horiz-adv-x="394" />
<glyph unicode="&#x200a;" horiz-adv-x="109" />
<glyph unicode="&#x2010;" horiz-adv-x="708" d="M67 456v187h571v-187h-571z" />
<glyph unicode="&#x2011;" horiz-adv-x="708" d="M67 456v187h571v-187h-571z" />
<glyph unicode="&#x2012;" horiz-adv-x="708" d="M67 456v187h571v-187h-571z" />
<glyph unicode="&#x2013;" horiz-adv-x="622" d="M-13 473v153h648v-153h-648z" />
<glyph unicode="&#x2014;" horiz-adv-x="1243" d="M-13 473v153h1270v-153h-1270z" />
<glyph unicode="&#x2018;" horiz-adv-x="470" d="M124 1032v214q0 65 13 120t39.5 94.5t66.5 61.5t94 22v-98q-105 0 -105 -200h105v-214h-213z" />
<glyph unicode="&#x2019;" horiz-adv-x="470" d="M129 1008v99q103 0 103 200h-103v210h213v-210q0 -142 -52.5 -220.5t-160.5 -78.5z" />
<glyph unicode="&#x201a;" horiz-adv-x="589" d="M189 0v212h213v-212q0 -66 -13.5 -121t-40 -94.5t-66.5 -61.5t-93 -22v99q104 0 104 200h-104z" />
<glyph unicode="&#x201c;" horiz-adv-x="708" d="M87 1032v214q0 65 13 120t38.5 94.5t66 61.5t94.5 22v-98q-105 0 -105 -200h105v-214h-212zM408 1032v214q0 137 51.5 217.5t161.5 80.5v-98q-105 0 -105 -200h105v-214h-213z" />
<glyph unicode="&#x201d;" horiz-adv-x="708" d="M87 1008v99q103 0 103 200h-103v210h212v-210q0 -142 -52.5 -220.5t-159.5 -78.5zM408 1008v99q105 0 105 200h-105v210h213v-210q0 -142 -53 -220.5t-160 -78.5z" />
<glyph unicode="&#x201e;" horiz-adv-x="831" d="M150 0v212h212v-212q0 -66 -13 -121t-39.5 -94.5t-66.5 -61.5t-93 -22v99q103 0 103 200h-103zM470 0v212h211v-212q0 -139 -51.5 -219t-159.5 -80v99q103 0 103 200h-103z" />
<glyph unicode="&#x2022;" horiz-adv-x="744" d="M109 744q0 53 20.5 100t56.5 83.5t83 58t101 21.5q53 0 102 -21.5t84.5 -58t57 -83.5t21.5 -100q0 -55 -21 -102t-57 -83.5t-84 -57.5t-103 -21q-54 0 -101 21t-83 56.5t-56.5 83.5t-20.5 103z" />
<glyph unicode="&#x2026;" horiz-adv-x="1198" d="M94 0v212h212v-212h-212zM493 0v212h212v-212h-212zM895 0v212h210v-212h-210z" />
<glyph unicode="&#x202f;" horiz-adv-x="394" />
<glyph unicode="&#x2039;" horiz-adv-x="708" d="M94 548l329 472h150l-267 -472l267 -472h-150z" />
<glyph unicode="&#x203a;" horiz-adv-x="708" d="M132 76l270 472l-270 472h153l328 -472l-328 -472h-153z" />
<glyph unicode="&#x205f;" horiz-adv-x="493" />
<glyph unicode="&#x20ac;" d="M0 543v112h99q-2 16 -2.5 41t-0.5 62q0 34 0.5 58.5t2.5 40.5h-99v111h106q60 576 483 576q210 0 329.5 -121.5t148.5 -360.5h-202q-14 156 -86.5 242.5t-189.5 86.5q-236 0 -282 -423h316l-31 -111h-293q-6 -6 -6 -99q4 -102 6 -103h230l-31 -112h-191q46 -414 282 -414 q243 0 276 354h202q-46 -509 -478 -509q-419 0 -483 569h-106z" />
<glyph unicode="&#x2122;" horiz-adv-x="1450" d="M53 1394v123h540v-123h-200v-616h-140v616h-200zM679 778v739h205l127 -570l129 570h201v-739h-126v605l-140 -605h-128l-139 605v-605h-129z" />
<glyph unicode="&#x25fc;" horiz-adv-x="1100" d="M0 0v1100h1100v-1100h-1100z" />
</font>
</defs>
</svg>
